Livin Blues - Out Of The Blue (1995)
MP3 FLAC WMA APE HD

Livin Blues - Out Of The Blue (1995)

Artist: Livin' Blues
Title Of Album: Out Of The Blue
Year Of Release: 1998
Label: AGAT Company Ltd
Genre: Blues Rock
Quality: FLAC
Bitrate: lossless
Total Time: 52:34
Total Size: 341 mb
Tracklist:
01. Mysterious Ways (Livin' Blues/Christiansen) 4:06
02. Blue Side Of Life (Livin' Blues/Christiansen) 4:26
03. Voodoo Dancer (Livin' Blues/Christiansen) 4:56
04. Skidrow (Livin' Blues/Christiansen) 6:59
05. Who Are You (Livin' Blues/Christiansen) 3:41
06. Who's Doing This Voodoo (Livin' Blues/Christiansen) 3:51
07. Hear Me Out (Livin' Blues/Christiansen) 2:24
08. Blueshouse (Livin' Blues/Christiansen) 4:23
09. Just Wanna Make Love To You (Dixon) 4:05
10. Crazy (Livin' Blues/Christiansen) 4:05
11. Don't Worry Baby (Durnett/Perez/Rosas) 3:19
12. Red Lights (Livin' Blues/Christiansen) 6:15
Exact Audio Copy V0.99 prebeta 5 from 4. May 2009
Отчёт EAC об извлечении, выполненном 6. июня 2009, 21:05
Livin' Blues / Out of the blue
Дисковод: _NEC DVD_RW ND-3540A Adapter: 2 ID: 0
Режим чтения : Достоверность
Использование точного потока : Да
Отключение кэша аудио : Да
Использование указателей C2 : Нет
Коррекция смещения при чтении : 48
Способность читать области Lead-in и Lead-out : Нет
Заполнение пропущенных сэмплов тишиной : Да
Удаление блоков с тишиной в начале и конце : Нет
При вычислениях CRC использовались нулевые сэмплы : Да
Интерфейс : Установленный внешний ASPI-интерфейс
Выходной формат : Пользовательский кодировщик
Выбранный битрейт : 768 kBit/s
Качество : Высокий
Добавление ID3-тэга : Нет
Утилита сжатия : C:Program FilesExact Audio CopyFLACFLAC.EXE
Дополнительные параметры : -6 -V -T "ARTIST=%a" -T "TITLE=%t" -T "ALBUM=%g" -T "DATE=%y" -T "TRACKNUMBER=%n" -T "GENRE=%m" -T "COMMENT=%e" %s -o %d
TOC извлечённого CD
Трек | Старт | Длительность | Начальный сектор | Конечный сектор
---------------------------------------------------------------------
1 | 0:00.00 | 4:06.42 | 0 | 18491
2 | 4:06.42 | 4:26.12 | 18492 | 38453
3 | 8:32.54 | 4:56.48 | 38454 | 60701
4 | 13:29.27 | 6:59.00 | 60702 | 92126
5 | 20:28.27 | 3:41.45 | 92127 | 108746
6 | 24:09.72 | 3:51.08 | 108747 | 126079
7 | 28:01.05 | 2:24.00 | 126080 | 136879
8 | 30:25.05 | 4:23.42 | 136880 | 156646
9 | 34:48.47 | 4:05.60 | 156647 | 175081
10 | 38:54.32 | 4:05.05 | 175082 | 193461
11 | 42:59.37 | 3:19.73 | 193462 | 208459
12 | 46:19.35 | 6:15.50 | 208460 | 236634
Характеристики диапазона извлечения и сообщения об ошибках
Выбранный диапазон
Имя файла E:AUDIOR&BLIVIN' BLUES (Flac)1995 - Out Of The BlueLivin' Blues - Out of the blue.wav
Пиковый уровень 100.0 %
Качество диапазона 100.0 %
CRC копии B26BF8D0
Копирование... OK
Ошибок не произошло
Конец отчёта




Alternative download links



Related MP3 FLAC to Livin Blues - Out Of The Blue (1995)
Feedback
All rights reserved.
WEBBG.com © 2000-2018