Rufus with Chaka Khan - The Very Best (1982)
MP3 FLAC WMA APE HD

Rufus with Chaka Khan - The Very Best (1982)

Artist: Rufus with Chaka Khan
Title Of Album: The Very Best
Year Of Release: 1982
Label: Mca
Genre: Funk,Soul
Quality: FLAC (image+.cue) + log
Bitrate: Lossless
Total Time: 42:29
Total Size: 240 Mb
Rufus was an American funk band, from Chicago, Illinois; best known for launching the career of lead singer Chaka Khan. They had several hits throughout their career, including "Tell Me Something Good," "Sweet Thing," and "Ain't Nobody."
Tracklist:
01. Do You Love What You Feel [0:04:31.03]
02. Tell Me Something Good [0:04:37.22]
03. Dance With Me [0:04:01.48]
04. Hollywood [0:04:06.37]
05. Stay [0:05:40.45]
06. Once You Get Started [0:04:18.40]
07. You Got The Love [0:04:39.00]
08. At Midnight(My Love Will Lift You Up) [0:04:12.00]
09. Please Pardn Me(You Remind Of A Friend) [0:03:03.30]
10. Sweet Thing [0:03:18.63]
Exact Audio Copy V0.99 prebeta 4 from 23. January 2008
Отчёт EAC об извлечении, выполненном 28. августа 2011, 10:46
Rufus With Chaka Khan / The Very Best
Дисковод: ASUS DRW-1814BL Adapter: 1 ID: 0
Режим чтения : Достоверность
Использование точного потока : Да
Отключение кэша аудио : Да
Использование указателей C2 : Нет
Коррекция смещения при чтении : 6
Способность читать области Lead-in и Lead-out : Нет
Заполнение пропущенных сэмплов тишиной : Да
Удаление блоков с тишиной в начале и конце : Нет
При вычислениях CRC использовались нулевые сэмплы : Да
Интерфейс : Установленный внешний ASPI-интерфейс
Выходной формат : Пользовательский кодировщик
Выбранный битрейт : 1024 kBit/s
Качество : Высокий
Добавление ID3-тэга : Нет
Утилита сжатия : C:Program FilesExact Audio CopyFLACFLAC.EXE
Дополнительные параметры : -6 -V -T "ARTIST=%a" -T "TITLE=%t" -T "ALBUM=%g" -T "DATE=%y" -T "TRACKNUMBER=%n" -T "GENRE=%m" -T "COMMENT=%e" %s -o %d
TOC извлечённого CD
Трек | Старт | Длительность | Начальный сектор | Конечный сектор
---------------------------------------------------------------------
1 | 0:00.00 | 4:31.03 | 0 | 20327
2 | 4:31.03 | 4:37.22 | 20328 | 41124
3 | 9:08.25 | 4:01.48 | 41125 | 59247
4 | 13:09.73 | 4:06.37 | 59248 | 77734
5 | 17:16.35 | 5:40.45 | 77735 | 103279
6 | 22:57.05 | 4:18.40 | 103280 | 122669
7 | 27:15.45 | 4:39.00 | 122670 | 143594
8 | 31:54.45 | 4:12.00 | 143595 | 162494
9 | 36:06.45 | 3:03.30 | 162495 | 176249
10 | 39:10.00 | 3:18.63 | 176250 | 191162
Характеристики диапазона извлечения и сообщения об ошибках
Выбранный диапазон
Имя файла D:ТОР+Losslessrufus'1982Rufus With Chaka Khan - The Very Best.wav
Пиковый уровень 95.5 %
Качество диапазона 100.0 %
CRC теста 87677FAE
CRC копии 87677FAE
Копирование... OK
Ошибок не произошло
Конец отчёта
FileSonic
Wupload



Alternative download links

DOWNLOAD

Related MP3 FLAC to Rufus with Chaka Khan - The Very Best (1982)
Feedback
All rights reserved.
WEBBG.com © 2000-2018