Houston Person - Moment To Moment (2010)
MP3 FLAC WMA APE HD

Houston Person - Moment To Moment (2010)

  • Genre: Music, Jazz, FLAC / APE
  • Formats: MP3 FLAC WMA HD APE
  • Album Size: 1295 mb.
  • Archive: ZIP RAR
Artist: Houston Person
Title Of Album: Moment To Moment
Year Of Release: 2010
Label: Highnote Records, Inc
Genre: Mainstream Jazz, Hard Bop
Quality: FLAC (*.flac)
Bitrate: lossless
Total Time: 56:15
Total Size: 399 MB
Tracklist:
01. Bleeker Street - 4:01
02. I Cover the Waterfornt - 5:59
03. Moment to Moment - 4:49
04. Freight Dance - 4:37
05. Don't Take Your Love From Me - 6:12
06. E Nada Mais - 4:54
07. Just The Way You Are - 6:16
08. Back In New Orleans - 6:09
09. All My Life - 3:36
10. Love Won't Let Me Wait - 5:51
11. Nina Never Knew - 3:52
Exact Audio Copy V1.0 beta 1 from 15. November 2010
EAC extraction logfile from 4. December 2010, 20:41
Houston Person / Moment To Moment
Used drive : HL-DT-STDVD-RAM GSA-H55N Adapter: 0 ID: 2
Read mode : Secure
Utilize accurate stream : Yes
Defeat audio cache : Yes
Make use of C2 pointers : No
Read offset correction : 102
Overread into Lead-In and Lead-Out : Yes
Fill up missing offset samples with silence : Yes
Delete leading and trailing silent blocks : No
Null samples used in CRC calculations : Yes
Used interface : Installed external ASPI interface
Gap handling : Appended to previous track
Used output format : User Defined Encoder
Selected bitrate : 128 kBit/s
Quality : High
Add ID3 tag : No
Command line compressor : G:Program FilesExact Audio CopyEncoderflac.exe
Additional command line options : -V -8 -T "Genre=%m" -T "Artist=%a" -T "Title=%t" -T "Album=%g" -T "Date=%y" -T "Tracknumber=%n" -T "Comment=EAC1b1 -8" %s
TOC of the extracted CD
Track | Start | Length | Start sector | End sector
---------------------------------------------------------
1 | 0:00.00 | 4:01.00 | 0 | 18074
2 | 4:01.00 | 5:59.37 | 18075 | 45036
3 | 10:00.37 | 4:49.19 | 45037 | 66730
4 | 14:49.56 | 4:36.52 | 66731 | 87482
5 | 19:26.33 | 6:11.39 | 87483 | 115346
6 | 25:37.72 | 4:53.50 | 115347 | 137371
7 | 30:31.47 | 6:16.18 | 137372 | 165589
8 | 36:47.65 | 6:09.10 | 165590 | 193274
9 | 42:57.00 | 3:35.39 | 193275 | 209438
10 | 46:32.39 | 5:51.13 | 209439 | 235776
11 | 52:23.52 | 3:51.73 | 235777 | 253174
Track 1
Filename F:WAV1 - Bleeker Street.wav
Pre-gap length 0:00:02.00
Peak level 100.0 %
Extraction speed 2.9 X
Track quality 100.0 %
Test CRC 3E4B80EA
Copy CRC 3E4B80EA
Track not present in AccurateRip database
Copy OK
Track 2
Filename F:WAV2 - I Cover the Waterfornt.wav
Peak level 91.9 %
Extraction speed 3.3 X
Track quality 100.0 %
Test CRC EF971DB0
Copy CRC EF971DB0
Track not present in AccurateRip database
Copy OK
Track 3
Filename F:WAV3 - Moment to Moment.wav
Peak level 100.0 %
Extraction speed 3.6 X
Track quality 100.0 %
Test CRC 7F1D5AF0
Copy CRC 7F1D5AF0
Track not present in AccurateRip database
Copy OK
Track 4
Filename F:WAV4 - Freight Dance.wav
Peak level 100.0 %
Extraction speed 3.8 X
Track quality 100.0 %
Test CRC 0F0B2094
Copy CRC 0F0B2094
Track not present in AccurateRip database
Copy OK
Track 5
Filename F:WAV5 - Don't Take Your Love From Me.wav
Peak level 94.1 %
Extraction speed 4.2 X
Track quality 100.0 %
Test CRC ADD90EAD
Copy CRC ADD90EAD
Track not present in AccurateRip database
Copy OK
Track 6
Filename F:WAV6 - E Nada Mais.wav
Peak level 97.4 %
Extraction speed 4.3 X
Track quality 100.0 %
Test CRC 43A69109
Copy CRC 43A69109
Track not present in AccurateRip database
Copy OK
Track 7
Filename F:WAV7 - Just The Way You Are.wav
Peak level 100.0 %
Extraction speed 4.3 X
Track quality 99.9 %
Test CRC FEC946B6
Copy CRC FEC946B6
Track not present in AccurateRip database
Copy OK
Track 8
Filename F:WAV8 - Back In New Orleans.wav
Peak level 98.8 %
Extraction speed 5.0 X
Track quality 100.0 %
Test CRC 180D816A
Copy CRC 180D816A
Track not present in AccurateRip database
Copy OK
Track 9
Filename F:WAV9 - All My Life.wav
Peak level 97.0 %
Extraction speed 4.1 X
Track quality 99.9 %
Test CRC 78F4A565
Copy CRC 78F4A565
Track not present in AccurateRip database
Copy OK
Track 10
Filename F:WAV10 - Love Won't Let Me Wait.wav
Peak level 100.0 %
Extraction speed 5.3 X
Track quality 100.0 %
Test CRC 2A419704
Copy CRC 2A419704
Track not present in AccurateRip database
Copy OK
Track 11
Filename F:WAV11 - Nina Never Knew.wav
Peak level 94.3 %
Extraction speed 5.7 X
Track quality 100.0 %
Test CRC 0DC41337
Copy CRC 0DC41337
Track not present in AccurateRip database
Copy OK
None of the tracks are present in the AccurateRip database
No errors occurred
End of status report
==== Log checksum 03D9682FAC55A35F4E2683C5FD33B388DC8E0AF67E952FF02113041E55576BC4 ====




Alternative download links



Related MP3 FLAC to Houston Person - Moment To Moment (2010)
Feedback
All rights reserved.
WEBBG.com © 2000-2018