Chamras Saewataporn - The Spell Of Whispering (2003)
MP3 FLAC WMA APE HD

Chamras Saewataporn - The Spell Of Whispering (2003)

Artist: Chamras Saewataporn
Title Of Album: The Spell Of Whispering
Year Of Release: 2003
Label: Green Music
Genre: New Age
Quality: WAV (image+.cue) + log
Bitrate: Lossless
Total Time: 23:37
Total Size: 238 Mb
Chamras Saewataporn is an accomplished Thai musician and composer who first turned professional at the age of 18. Between 1986 and 1997, he composed theme songs for over 100 Thai movies. He is inspired by his beliefs in Buddhism, and began composing music for relaxation, healing and meditation in 1993. He has won numerous domestic and international awards.
Tracklist:
1. Nest on the tree of life
2. The spell of whispering
3. Jungle palace
4. Everlasting divine poetry
5. Sleepy child
Exact Audio Copy V0.99 prebeta 5 from 4. May 2009
Отчёт EAC об извлечении, выполненном 9. июля 2011, 13:38
Chamras Saewataporn / The Spell Of Whispering
Дисковод: _NEC CDRW/DVD CB1100B Adapter: 0 ID: 1
Режим чтения : Достоверность
Использование точного потока : Да
Отключение кэша аудио : Да
Использование указателей C2 : Нет
Коррекция смещения при чтении : 6
Способность читать области Lead-in и Lead-out : Нет
Заполнение пропущенных сэмплов тишиной : Да
Удаление блоков с тишиной в начале и конце : Нет
При вычислениях CRC использовались нулевые сэмплы : Да
Интерфейс : Встроенный Win32-интерфейс для Win NT/2000
Выходной формат : Внутренние WAV-операции
Формат сэмплов : 44.100 Гц; 16 бит; стерео
TOC извлечённого CD
Трек | Старт | Длительность | Начальный сектор | Конечный сектор
---------------------------------------------------------------------
1 | 0:00.00 | 5:35.03 | 0 | 25127
2 | 5:35.03 | 4:28.33 | 25128 | 45260
3 | 10:03.36 | 4:00.66 | 45261 | 63326
4 | 14:04.27 | 5:10.09 | 63327 | 86585
5 | 19:14.36 | 4:23.04 | 86586 | 106314
Характеристики диапазона извлечения и сообщения об ошибках
Выбранный диапазон
Имя файла E:Chamras SaewatapornChamras Saewataporn - The Spell Of Whispering.wav
Пиковый уровень 100.0 %
Качество диапазона 100.0 %
CRC теста 29379218
CRC копии 29379218
Копирование... OK
Ошибок не произошло
FileSonic
Wupload



Alternative download links

DOWNLOAD

Related MP3 FLAC to Chamras Saewataporn - The Spell Of Whispering (2003)
Feedback
All rights reserved.
WEBBG.com © 2000-2018