Baker Gurvitz Army - Hearts On Fire (1976)
MP3 FLAC WMA APE HD

Baker Gurvitz Army - Hearts On Fire (1976)

Artist: Baker Gurvitz Army
Title Of Album: Hearts On Fire
Year Of Release: 1976
Label: Strange Days Records (Japan), WAS-1075
Genre: Hard/Blues Rock
Quality: Lossless
Bitrate: FLAC image + cue + log + scans
Total Time: 00:37:37
Total Size: 235 MB (3% rec.)
"Hearts On Fire" is Baker Gurvitz Army's third and last studio album. It benefits from the presence of lead vocalist Snips (formerly of the Sharks, he also appears on "Elysian Encounter"). 70's rock enthusiasts won't be disappointed.
Tracklist
1. Hearts On Fire [02:34]
2. Neon Lights [04:41]
3. Smiling [03:15]
4. Tracks Of My Life [04:32]
5. Flying In And Out Of Stardom [02:27]
6. Dancing the Night Away [03:27]
7. My Mind Is Healing [03:54]
8. Thirsty For The Blues [05:19]
9. Night People [03:22]
10. Mystery [04:06]
Total time 00:37:37
Personnel:
Ginger Baker - drums, percussion, vocals
Adrian Gurvitz - guitar, vocals
Paul Gurvitz - bass, vocals
Mr. Snips - vocals
John Norman Mitchell - keyboards, synthesizer, vibes
Originally released at Mountain / TOPS 111 / 1976.
Reissued by Strange Days Records / 2005, under British Rock Masterpiece, part 7 (Underground Hard Rock & Blues).
Exact Audio Copy V0.99 prebeta 4 from 23. January 2008
EAC extraction logfile from 31. December 2008, 13:13
Baker Gurvitz Army / Hearts On Fire
Used drive : TSSTcorpCD/DVDW SH-W162C Adapter: 0 ID: 0
Read mode : Secure
Utilize accurate stream : Yes
Defeat audio cache : Yes
Make use of C2 pointers : No
Read offset correction : 6
Overread into Lead-In and Lead-Out : No
Fill up missing offset samples with silence : Yes
Delete leading and trailing silent blocks : No
Null samples used in CRC calculations : Yes
Used interface : Installed external ASPI interface
Used output format : Internal WAV Routines
Sample format : 44.100 Hz; 16 Bit; Stereo
TOC of the extracted CD
Track | Start | Length | Start sector | End sector
---------------------------------------------------------
1 | 0:00.00 | 2:34.45 | 0 | 11594
2 | 2:34.45 | 4:41.67 | 11595 | 32736
3 | 7:16.37 | 3:15.22 | 32737 | 47383
4 | 10:31.59 | 4:32.16 | 47384 | 67799
5 | 15:04.00 | 2:27.70 | 67800 | 78894
6 | 17:31.70 | 3:27.67 | 78895 | 94486
7 | 20:59.62 | 3:54.74 | 94487 | 112110
8 | 24:54.61 | 5:19.42 | 112111 | 136077
9 | 30:14.28 | 3:22.71 | 136078 | 151298
10 | 33:37.24 | 4:06.70 | 151299 | 169818
Range status and errors
Selected range
Filename C:Baker Gurvitz Army Hearts On FireBaker Gurvitz Army - Hearts On Fire.wav
Peak level 79.8 %
Range quality 100.0 %
Copy CRC 67235422
Copy OK
No errors occurred
End of status report
Download:
(filesonic.com)
(uploaded.to)





Alternative download links

Download

Related MP3 FLAC to Baker Gurvitz Army - Hearts On Fire (1976)
Feedback
All rights reserved.
WEBBG.com © 2000-2018