Sherbet - Photoplay (1977) 1999, Remastered Reissue CD Rip
MP3 FLAC WMA APE HD

Sherbet - Photoplay (1977) 1999, Remastered Reissue CD Rip

Artist: Sherbet
Title: Photoplay
Year Of Release: 1999
Label: Festival Records Pty Ltd. (AU)
Genre: Pop/Rock, Soft Rock
Quality: FLAC (img.+.cue+.log) | MP3 320kbps
Total Time: 37:26
Total Size: 318,61 | 157,78 Mb (Full Scans)
WebSite:

Sherbet were Australia's most popular pop group of the 70s with 20 consecutive hit records and 17 album, accounting for 10 platinum and 14 gold disc awards. In 1969 the Sydney entertainment scene was almost totally geared towards satisfying the money-rich comfort-starved American Vietnam troops who came for official Rest And Recreation. Sydney's nightclubs gave them what they wanted - r&b, soul, funk, good-time rock - and these influences spilled over into the pop group Sherbet, formed without singer Daryl Braithwaite, but completed by his falsetto-capable vocals. They were the archetypical 70s girl fodder pop band - groomed hair, colorful satin stage outfits. In July 1976 the group's eighth national top ten hit "Howzat" became their first number one, ending Abba's record breaking fourteen week at the top with "Fernando." Sherbet's album of the same name as the hit also made number one, also replacing Abba. The "Howzat" single was released in England where it made Top 10, was a hit in several countries in Europe and South East Asia, and also received extensive airplay across America. Sherbet now set their sights on conquering the rest of the world. In June 1978 they recorded their seventh studio album in Los Angeles. At the insistence of RSO Records Sherbet changed their name to Highway. They wanted to be seen as serious about their music and Sherbet was considered too frivolous and poppy a name. In Australia they only released one single as Highway, preferring to shorted their name to The Sherbs. Trying to balance between winning America and keeping their Australian following happy the band lost its momentum, and in late 1983 they announced they were splitting up. At the height of their popularity singer Daryl Braithwaite had released several successful solo singles. Taking some time off to put the Sherbet years behind him, Braithwaite relaunched his solo career in 1988, with eight more hit singles and two big selling albums, Edge and Rise. Sherbet's main songwriter Garth Porter has become one of the cornerstones of the contemporary Australian country music scene, in particular as producer and occasional songwriting partner for Australia's "Garth Brooks", Lee Kernaghan. ~Review by Ed Nimmervoll~
Their 1977 album "Photoplay" was retitled "Magazine" for US release, and featured elaborate gatefold packaging. Though the album and its lead single "Magazine Madonna" were successes in Australia (both reaching #3 on their respective charts), the retitled LP failed to chart in the U.S., as did the associated single.
Release of the album: 1977 [LP Razzle Records, Cat.# L 36268, AU]
Release of this CD: 1999 [CD Festival Records Pty Ltd. (AU), Cat.# D20039 / UPC: 9399602003924]
(p)(c) 1977 Sherbet. (c) 1999 Festival Records P/L (Aust.)
Manufactured by Festival Records Pty Ltd., Australia
Printed in Australia


Credits:

Bass, Vocals – Tony Mitchell
Drums, Percussion – Alan Sandow
Guitar, Vocals – Harvey James
Keyboards, Vocals – Garth Porter
Lead Vocals – Daryl Braithwaite
Producer – Richard Lush, Sherbet
Remastered By – William Bowden


Tracklist:

01. High Rollin (03:47)
(G. Porter, T. Mitchell)
02. Magazine Madonna (04:10)
(G. Porter, T. Mitchell)
03. Midsummer Madness (03:27)
(G. Porter, T. Mitchell, H. James)
04. What Do You Do (03:38)
(G. Porter, T. Mitchell)
05. I Got Love (03:48)
(G. Porter, T. Mitchell)
06. Still In Love With You (04:39)
(G. Porter, T. Mitchell)
07. Love Is Fine (04:11)
(G. Porter, T. Mitchell)
08. Let Me Flow (04:02)
(G. Porter, T. Mitchell)
09. The Way I Am (02:42)
(G. Porter, H. James)
10. It's A Game (03:03)
(G. Porter, T. Mitchell)

--------------------------------------------------------------------------------
Analyzed: Sherbet / Photoplay
--------------------------------------------------------------------------------

DR Peak RMS Duration Track
--------------------------------------------------------------------------------
DR10 -0.38 dB -12.41 dB 3:47 01-High Rollin'
DR8 -0.39 dB -10.78 dB 4:10 02-Magazine Madonna
DR10 -0.40 dB -12.74 dB 3:27 03-Midsummer Madness
DR10 -0.33 dB -12.05 dB 3:38 04-What Do You Do
DR8 -0.30 dB -9.80 dB 3:48 05-I Got Love
DR9 -0.42 dB -12.15 dB 4:39 06-Still In Love With You
DR11 -0.22 dB -12.96 dB 4:11 07-Love Is Fine
DR10 -0.27 dB -12.92 dB 4:02 08-Let Me Flow
DR9 -0.47 dB -10.90 dB 2:42 09-The Way I Am
DR8 -0.27 dB -10.16 dB 3:03 10-It's A Game
--------------------------------------------------------------------------------

Number of tracks: 10
Official DR value: DR9

Samplerate: 44100 Hz
Channels: 2
Bits per sample: 16
Bitrate: 900 kbps
Codec: FLAC
================================================================================




Alternative download links

Turbobit Turbobit

Related MP3 FLAC to Sherbet - Photoplay (1977) 1999, Remastered Reissue CD Rip
Feedback
All rights reserved.
WEBBG.com © 2000-2018