Miguel M - A New Day (2005)
MP3 FLAC WMA APE HD

Miguel M - A New Day (2005)

  • Genre: Music, Blues, FLAC / APE
  • Formats: MP3 FLAC WMA HD APE
  • Album Size: 1671 mb.
  • Archive: ZIP RAR
Artist: Miguel M
Title Of Album: A New Day
Year Of Release: 2005
Label: Last Call Records
Genre: Blues
Quality: FLAC (image+.cue) + log
Bitrate: Lossless
Total Time: 51:05
Total Size: 351 Mb
Miguel M is a young french bluesman with spanish origins. Rather than copying his masters, Buddt Guy and Albert Collins, he has developped a very personal style, powerful and modern.
Tracklist:
01. Bad Condition (Lucky Peterson) 03:31
02. My Little Home (Miguel M) 05:44
03. Young Man (Miguel M) 04:21
04. My Father (Miguel M) 05:27
05. We Will Rock You (Queen) 04:15
06. Spain (Miguel M) 05:45
07. I'm Ready (Willie Dixon) 03:46
08. Get Up, Stand Up (Bob Marley) 06:35
09. Indiana Blues (Miguel M) 04:28
Exact Audio Copy V0.99 prebeta 4 from 23. January 2008
Отчёт EAC об извлечении, выполненном 11. августа 2010, 12:21
Miguel M / A New Day
Дисковод: PLEXTOR CD-R PX-W5224A Adapter: 0 ID: 1
Режим чтения : Достоверность
Использование точного потока : Да
Отключение кэша аудио : Да
Использование указателей C2 : Нет
Коррекция смещения при чтении : 30
Способность читать области Lead-in и Lead-out : Нет
Заполнение пропущенных сэмплов тишиной : Да
Удаление блоков с тишиной в начале и конце : Нет
При вычислениях CRC использовались нулевые сэмплы : Да
Интерфейс : Установленный внешний ASPI-интерфейс
Выходной формат : Пользовательский кодировщик
Выбранный битрейт : 768 kBit/s
Качество : Высокий
Добавление ID3-тэга : Нет
Утилита сжатия : C:Program FilesExact Audio CopyFlacflac.exe
Дополнительные параметры : -8 -V -T "ARTIST=%a" -T "TITLE=%t" -T "ALBUM=%g" -T "DATE=%y" -T "TRACKNUMBER=%n" -T "GENRE=%m" -T "COMMENT=www.blues.at.ua" -T "URL=www.blues.at.ua" %s -o %d
TOC извлечённого CD
Трек | Старт | Длительность | Начальный сектор | Конечный сектор
---------------------------------------------------------------------
1 | 0:00.00 | 3:31.10 | 0 | 15834
2 | 3:31.10 | 5:44.04 | 15835 | 41638
3 | 9:15.14 | 4:21.34 | 41639 | 61247
4 | 13:36.48 | 5:27.39 | 61248 | 85811
5 | 19:04.12 | 4:15.69 | 85812 | 105005
6 | 23:20.06 | 5:45.61 | 105006 | 130941
7 | 29:05.67 | 3:46.22 | 130942 | 147913
8 | 32:52.14 | 6:35.63 | 147914 | 177601
9 | 39:28.02 | 4:28.48 | 177602 | 197749
10 | 43:56.50 | 7:08.68 | 197750 | 229917
Характеристики диапазона извлечения и сообщения об ошибках
Выбранный диапазон
Имя файла D:My MusicLarryMiguel M - A New DayMiguel M - A New Day.wav
Пиковый уровень 100.0 %
Качество диапазона 100.0 %
CRC копии 76F4F438
Копирование... OK
Ошибок не произошло
Конец отчёта
FileSonic
Wupload



Alternative download links

DOWNLOAD

Related MP3 FLAC to Miguel M - A New Day (2005)
Feedback
All rights reserved.
WEBBG.com © 2000-2018