Racey - Greatest Hits (2009)
MP3 FLAC WMA APE HD

Racey - Greatest Hits (2009)

Artist: Racey
Title Of Album: Greatest Hits
Year Of Release: 2009
Label: 7T's Records
Genre: Pop Rock, Glam Rock
Quality: FLAC (image+.cue) + log
Bitrate: Lossless
Total Time: 78:49
Total Size: 580 Mb
Racey - british pop rock band.
Tracklist:
01. Love Games 03:20
02. Rest Of My Life 03:30
03. Rah Stateway 03:49
04. Some Girls 03:27
05. Let Me Take You Home Tonight 03:28
06. Boy Oh Boy 02:53
07. Little Darlin' 02:42
08. Not Too Young To Get Married 03:02
09. Such A Night 02:59
10. Lay Your Love On Me 03:17
11. I Believed You 03:07
12. Hold Me Close 02:44
13. Runaround Sue 03:02
14. We Are Racey 03:06
15. She's A Winner 02:50
16. Baby It's You 03:40
17. Fighting Chance 03:47
18. Love's A Riot 03:01
19. Rock It 02:44
20. Kitty 03:39
21. Lay Your Cards On The Table 03:11
22. Shame 02:37
23. There's A Party Going On 03:11
24. Cry Baby Cry 02:37
24. August 2011, 10:24
Exact Audio Copy V1.0 beta 1 from 15. November 2010
EAC extraction logfile from 24. August 2011, 10:24
Racey / Greatest Hits
Used drive : ATAPI iHAP122 W Adapter: 1 ID: 0
Read mode : Secure
Utilize accurate stream : Yes
Defeat audio cache : Yes
Make use of C2 pointers : No
Read offset correction : 24
Overread into Lead-In and Lead-Out : Yes
Fill up missing offset samples with silence : Yes
Delete leading and trailing silent blocks : No
Null samples used in CRC calculations : Yes
Used interface : Native Win32 interface for Win NT & 2000
Used output format : Internal WAV Routines
Sample format : 44.100 Hz; 16 Bit; Stereo
TOC of the extracted CD
Track | Start | Length | Start sector | End sector
---------------------------------------------------------
1 | 0:00.00 | 3:20.01 | 0 | 15000
2 | 3:20.01 | 3:30.09 | 15001 | 30759
3 | 6:50.10 | 3:49.07 | 30760 | 47941
4 | 10:39.17 | 3:27.36 | 47942 | 63502
5 | 14:06.53 | 3:28.24 | 63503 | 79126
6 | 17:35.02 | 2:53.42 | 79127 | 92143
7 | 20:28.44 | 2:42.35 | 92144 | 104328
8 | 23:11.04 | 3:02.56 | 104329 | 118034
9 | 26:13.60 | 2:59.12 | 118035 | 131471
10 | 29:12.72 | 3:17.68 | 131472 | 146314
11 | 32:30.65 | 3:07.36 | 146315 | 160375
12 | 35:38.26 | 2:44.26 | 160376 | 172701
13 | 38:22.52 | 3:02.37 | 172702 | 186388
14 | 41:25.14 | 3:06.45 | 186389 | 200383
15 | 44:31.59 | 2:50.24 | 200384 | 213157
16 | 47:22.08 | 3:40.19 | 213158 | 229676
17 | 51:02.27 | 3:47.59 | 229677 | 246760
18 | 54:50.11 | 3:01.46 | 246761 | 260381
19 | 57:51.57 | 2:44.15 | 260382 | 272696
20 | 60:35.72 | 3:39.26 | 272697 | 289147
21 | 64:15.23 | 3:11.65 | 289148 | 303537
22 | 67:27.13 | 2:37.67 | 303538 | 315379
23 | 70:05.05 | 3:11.38 | 315380 | 329742
24 | 73:16.43 | 2:37.26 | 329743 | 341543
25 | 75:53.69 | 2:55.64 | 341544 | 354732
Range status and errors
Selected range
Filename C:MusicBoxRacey - Greatest Hits.wav
Peak level 97.7 %
Extraction speed 0.3 X
Range quality 99.9 %
Copy CRC 6E5B06C7
Copy OK
No errors occurred
AccurateRip summary
Track 1 not present in database
Track 2 not present in database
Track 3 not present in database
Track 4 not present in database
Track 5 not present in database
Track 6 not present in database
Track 7 not present in database
Track 8 not present in database
Track 9 not present in database
Track 10 not present in database
Track 11 not present in database
Track 12 not present in database
Track 13 not present in database
Track 14 not present in database
Track 15 not present in database
Track 16 not present in database
Track 17 not present in database
Track 18 not present in database
Track 19 not present in database
Track 20 not present in database
Track 21 not present in database
Track 22 not present in database
Track 23 not present in database
Track 24 not present in database
Track 25 not present in database
None of the tracks are present in the AccurateRip database
End of status report
FileSonic
Wupload



Alternative download links

DOWNLOAD

Related MP3 FLAC to Racey - Greatest Hits (2009)
Feedback
All rights reserved.
WEBBG.com © 2000-2018