Roger Chapman - Mango Crazy (1983)
MP3 FLAC WMA APE HD

Roger Chapman - Mango Crazy (1983)

Artist: Roger Chapman
Title Of Album: Mango Crazy
Year Of Release: 1983
Label: Null Data
Genre: Rock
Quality: APE (image+.cue) + log
Bitrate: Lossless
Total Time: 46:40
Total Size: 274 Mb
This is a reissue of the 1983 Roger Chapman solo album that gave him his first taste of chart success in Europe. Mango Crazy was the first of a number of self-produced chart hits for the former Family vocalist in the eighties.
Tracklist:
01. Mango crazy
02. Toys: Do you?
03. I read your file
04. Los dos bailadores
05. Bluesbreaker
06. Turn it up loud
07. Let me down
08. Hunt the Man
09. River run dry
10. I really can't go straight
11. Room Service
12. Hegoshegoyougoamigo
Exact Audio Copy V0.99 prebeta 5 from 4. May 2009
Отчёт EAC об извлечении, выполненном 31. августа 2011, 18:57
Chapman, Roger / Mango Crazy
Дисковод: Optiarc DVD RW AD-7200A Adapter: 1 ID: 0
Режим чтения : Достоверность
Использование точного потока : Да
Отключение кэша аудио : Да
Использование указателей C2 : Нет
Коррекция смещения при чтении : 48
Способность читать области Lead-in и Lead-out : Нет
Заполнение пропущенных сэмплов тишиной : Да
Удаление блоков с тишиной в начале и конце : Нет
При вычислениях CRC использовались нулевые сэмплы : Да
Интерфейс : Встроенный Win32-интерфейс для Win NT/2000
Выходной формат : Внутренние WAV-операции
Формат сэмплов : 44.100 Гц; 16 бит; стерео
TOC извлечённого CD
Трек | Старт | Длительность | Начальный сектор | Конечный сектор
---------------------------------------------------------------------
1 | 0:00.00 | 4:41.62 | 0 | 21136
2 | 4:41.62 | 4:07.10 | 21137 | 39671
3 | 8:48.72 | 3:59.38 | 39672 | 57634
4 | 12:48.35 | 3:44.52 | 57635 | 74486
5 | 16:33.12 | 4:15.10 | 74487 | 93621
6 | 20:48.22 | 4:05.15 | 93622 | 112011
7 | 24:53.37 | 3:22.15 | 112012 | 127176
8 | 28:15.52 | 6:06.18 | 127177 | 154644
9 | 34:21.70 | 4:10.27 | 154645 | 173421
10 | 38:32.22 | 4:16.13 | 173422 | 192634
11 | 42:48.35 | 2:54.20 | 192635 | 205704
12 | 45:42.55 | 0:57.40 | 205705 | 210019
Характеристики диапазона извлечения и сообщения об ошибках
Выбранный диапазон
Имя файла H:Roger Chapman Mango Crazy 1983Chapman, Roger - Mango Crazy.wav
Пиковый уровень 100.0 %
Качество диапазона 100.0 %
CRC копии 15FA4BFC
Копирование... OK
Ошибок не произошло
AccurateRip: сводка
Трек 1 нет в базе данных
Трек 2 нет в базе данных
Трек 3 нет в базе данных
Трек 4 нет в базе данных
Трек 5 нет в базе данных
Трек 6 нет в базе данных
Трек 7 нет в базе данных
Трек 8 нет в базе данных
Трек 9 нет в базе данных
Трек 10 нет в базе данных
Трек 11 нет в базе данных
Трек 12 нет в базе данных
Ни одного трека нет в базе AccurateRip
Конец отчёта
FileSonic
Wupload



Alternative download links

DOWNLOAD

Related MP3 FLAC to Roger Chapman - Mango Crazy (1983)
Feedback
All rights reserved.
WEBBG.com © 2000-2018