Zed Head - Mortal Man (2011)
MP3 FLAC WMA APE HD

Zed Head - Mortal Man (2011)

Artist: Zed Head
Title Of Album: Mortal Man
Year Of Release: 2011
Label: Music Avenue
Genre: Blues-Rock
Quality: APE (image+.cue) + log
Bitrate: Lossless
Total Time: 56:10
Total Size: 388 Mb
Good blues-rock album.
Tracklist:
01. Texas Twister [0:03:09.29]
02. Fast Ford Freddy [0:04:08.06]
03. Shotgun [0:04:31.40]
04. Mortal Man [0:04:18.48]
05. Voodoo Love [0:03:59.20]
06. Cheapseats [0:03:57.52]
07. Cock of the Rock [0:03:29.18]
08. Good Lovin' [0:04:45.00]
09. Front Porch [0:02:05.38]
10. The Big Smoke [0:03:49.93]
11. Till I Lost You [0:04:50.52]
12. Electraglide Shuffle [0:04:28.53]
13. Nice To Love You [0:04:25.25]
14. Kickstart [0:04:11.86]
Exact Audio Copy V0.99 prebeta 4 from 23. January 2008
Отчёт EAC об извлечении, выполненном 30. апреля 2011, 14:40
Mortal Man / Zed Head
Дисковод: Optiarc DVD RW AD-7173A Adapter: 0 ID: 1
Режим чтения : Достоверность
Использование точного потока : Да
Отключение кэша аудио : Да
Использование указателей C2 : Нет
Коррекция смещения при чтении : 48
Способность читать области Lead-in и Lead-out : Нет
Заполнение пропущенных сэмплов тишиной : Да
Удаление блоков с тишиной в начале и конце : Нет
При вычислениях CRC использовались нулевые сэмплы : Да
Интерфейс : Встроенный Win32-интерфейс для Win NT/2000
Выходной формат : Внутренние WAV-операции
Формат сэмплов : 44.100 Гц; 16 бит; стерео
TOC извлечённого CD
Трек | Старт | Длительность | Начальный сектор | Конечный сектор
---------------------------------------------------------------------
1 | 0:00.00 | 3:09.22 | 0 | 14196
2 | 3:09.22 | 4:08.05 | 14197 | 32801
3 | 7:17.27 | 4:31.30 | 32802 | 53156
4 | 11:48.57 | 4:18.36 | 53157 | 72542
5 | 16:07.18 | 3:59.15 | 72543 | 90482
6 | 20:06.33 | 3:57.39 | 90483 | 108296
7 | 24:03.72 | 3:29.14 | 108297 | 123985
8 | 27:33.11 | 4:45.00 | 123986 | 145360
9 | 32:18.11 | 2:05.29 | 145361 | 154764
10 | 34:23.40 | 3:49.70 | 154765 | 172009
11 | 38:13.35 | 4:50.39 | 172010 | 193798
12 | 43:03.74 | 4:28.40 | 193799 | 213938
13 | 47:32.39 | 4:25.19 | 213939 | 233832
14 | 51:57.58 | 4:11.65 | 233833 | 252722
Характеристики диапазона извлечения и сообщения об ошибках
Выбранный диапазон
Имя файла E:Новая папка Mortal Man - Zed Head.wav
Пиковый уровень 98.8 %
Качество диапазона 99.6 %
CRC теста 016E7CED
CRC копии 016E7CED
Копирование... OK
Ошибок не произошло
AccurateRip: сводка
Трек 1 нет в базе данных
Трек 2 нет в базе данных
Трек 3 нет в базе данных
Трек 4 нет в базе данных
Трек 5 нет в базе данных
Трек 6 нет в базе данных
Трек 7 нет в базе данных
Трек 8 нет в базе данных
Трек 9 нет в базе данных
Трек 10 нет в базе данных
Трек 11 нет в базе данных
Трек 12 нет в базе данных
Трек 13 нет в базе данных
Трек 14 нет в базе данных
Ни одного трека нет в базе AccurateRip
Конец отчёта
FileSonic
Turbobit



Alternative download links

DOWNLOAD

Related MP3 FLAC to Zed Head - Mortal Man (2011)
Feedback
All rights reserved.
WEBBG.com © 2000-2018