Shakatak - Smooth Solos (2003) ape320
MP3 FLAC WMA APE HD

Shakatak - Smooth Solos (2003) ape320

Artist: Shakatak
Title Of Album: Smooth Solos
Year Of Release: 2003
Label: Passion Music
Genre: Jazz, Smooth Jazz, Funk
Quality: APE (Img,cue,log,scans)
Bitrate: lossless
Total Time: 01:14:04 min
Total Size: 431 mb (+%rec)
TRACKLIST
1. Hypnotique
2. One Time
3. Coastal Route
4. Just for You
5. Dream Away
6. Rhythm Dance
7. Couldn't Believe It
8. Espirito
9. Don't Let Go
10. My Blue Heart
11. When the Trust Has Gone
12. Wonderland
13. Let the Rhythm Take You High
14. I Can't Let You Go
15. Breathing Space
Exact Audio Copy V0.99 prebeta 3 from 28. July 2007
Отчёт EAC об извлечении, выполненном 3. мая 2008, 21:45
Shakatak / Smooth Solos
Дисковод: Optiarc DVD RW AD-7170A Adapter: 1 ID: 0
Режим чтения : Достоверность
Использование точного потока : Да
Отключение кэша аудио : Да
Использование указателей C2 : Нет
Коррекция смещения при чтении : 48
Способность читать области Lead-in и Lead-out : Нет
Заполнение пропущенных сэмплов тишиной : Да
Удаление блоков с тишиной в начале и конце : Нет
При вычислениях CRC использовались нулевые сэмплы : Да
Интерфейс : Встроенный Win32-интерфейс для Win NT/2000
Выходной формат : Внутренние WAV-операции
Формат сэмплов : 44.100 Гц; 16 бит; стерео
TOC извлечённого CD
Трек | Старт | Длительность | Начальный сектор | Конечный сектор
---------------------------------------------------------------------
1 | 0:00.00 | 6:00.53 | 0 | 27052
2 | 6:00.53 | 4:32.49 | 27053 | 47501
3 | 10:33.27 | 5:01.48 | 47502 | 70124
4 | 15:35.00 | 4:46.59 | 70125 | 91633
5 | 20:21.59 | 4:11.07 | 91634 | 110465
6 | 24:32.66 | 6:04.52 | 110466 | 137817
7 | 30:37.43 | 4:10.62 | 137818 | 156629
8 | 34:48.30 | 4:19.37 | 156630 | 176091
9 | 39:07.67 | 4:52.57 | 176092 | 198048
10 | 44:00.49 | 4:55.22 | 198049 | 220195
11 | 48:55.71 | 4:40.33 | 220196 | 241228
12 | 53:36.29 | 3:46.47 | 241229 | 258225
13 | 57:23.01 | 5:30.13 | 258226 | 282988
14 | 62:53.14 | 4:57.66 | 282989 | 305329
15 | 67:51.05 | 6:13.51 | 305330 | 333355
Характеристики диапазона извлечения и сообщения об ошибках
Выбранный диапазон
Имя файла D:DocssashaМои документыUPLOADShakatak 2002 Smooth SolosShakatak - Smooth Solos.wav
Пиковый уровень 100.0 %
Качество диапазона 99.9 %
CRC теста 101755D0
CRC копии 101755D0
Копирование... OK
Ошибок не произошло

AccurateRip: сводка

Трек 1 нет в базе данных
Трек 2 нет в базе данных
Трек 3 нет в базе данных
Трек 4 нет в базе данных
Трек 5 нет в базе данных
Трек 6 нет в базе данных
Трек 7 нет в базе данных
Трек 8 нет в базе данных
Трек 9 нет в базе данных
Трек 10 нет в базе данных
Трек 11 нет в базе данных
Трек 12 нет в базе данных
Трек 13 нет в базе данных
Трек 14 нет в базе данных
Трек 15 нет в базе данных

Ни одного трека нет в базе AccurateRip
Конец отчёта
Download
If links are broken please send me PM



Alternative download links

Uploaded

Related MP3 FLAC to Shakatak - Smooth Solos (2003) ape320
Feedback
All rights reserved.
WEBBG.com © 2000-2018