John Lee Hooker - Boom Boom (1992)
MP3 FLAC WMA APE HD

John Lee Hooker - Boom Boom (1992)

  • Genre: Music, Blues, FLAC / APE
  • Formats: MP3 FLAC WMA HD APE
  • Album Size: 1386 mb.
  • Archive: ZIP RAR
Artist: John Lee Hooker
Title Of Album: Boom Boom
Year Of Release: 1992
Label: Pointblank / Virgin
Genre: Blues
Quality: APE (*.ape)
Bitrate: lossless
Total Time: 42:23
Total Size: 282 MB
Tracklist:
01. Boom Boom [0:04:19.15]
02. I'm Bad Like Jesse James [0:02:14.67]
03. Same Old Blues Again [0:06:14.10]
04. Sugar Mama [0:04:06.25]
05. Trick Bag (Shoppin' For My Tombstone) [0:04:39.23]
06. Boogie At Russian Hill [0:04:35.57]
07. Hittin' The Bottle Again [0:02:23.25]
08. Bottle Up And Go [0:02:47.35]
09. Thought I Heard [0:04:35.68]
10. I Ain't Gonna Suffer No More [0:06:26.50]
Exact Audio Copy V0.99 prebeta 5 from 4. May 2009
Отчёт EAC об извлечении, выполненном 5. марта 2010, 15:48
John Lee Hooker / Boom Boom
Дисковод: TEAC CD-W552G Adapter: 1 ID: 1
Режим чтения : Достоверность
Использование точного потока : Да
Отключение кэша аудио : Да
Использование указателей C2 : Нет
Коррекция смещения при чтении : 6
Способность читать области Lead-in и Lead-out : Нет
Заполнение пропущенных сэмплов тишиной : Да
Удаление блоков с тишиной в начале и конце : Нет
При вычислениях CRC использовались нулевые сэмплы : Да
Интерфейс : Установленный внешний ASPI-интерфейс
Выходной формат : Внутренние WAV-операции
Формат сэмплов : 44.100 Гц; 16 бит; стерео
TOC извлечённого CD
Трек | Старт | Длительность | Начальный сектор | Конечный сектор
---------------------------------------------------------------------
1 | 0:00.33 | 4:19.15 | 33 | 19472
2 | 4:19.48 | 2:14.67 | 19473 | 29589
3 | 6:34.40 | 6:14.10 | 29590 | 57649
4 | 12:48.50 | 4:06.25 | 57650 | 76124
5 | 16:55.00 | 4:39.23 | 76125 | 97072
6 | 21:34.23 | 4:35.57 | 97073 | 117754
7 | 26:10.05 | 2:23.25 | 117755 | 128504
8 | 28:33.30 | 2:47.35 | 128505 | 141064
9 | 31:20.65 | 4:35.68 | 141065 | 161757
10 | 35:56.58 | 6:26.50 | 161758 | 190757
Характеристики диапазона извлечения и сообщения об ошибках
Выбранный диапазон
Имя файла D:MusicCDTorrentJohn Lee Hooker - Boom BoomJohn Lee Hooker - Boom Boom.wav
Пиковый уровень 99.5 %
Качество диапазона 100.0 %
CRC теста B3C4CBB4
CRC копии B3C4CBB4
Копирование... OK
Ошибок не произошло
AccurateRip: сводка
Трек 1 точное извлечение (доверие 52) [C863BB17]
Трек 2 точное извлечение (доверие 53) [A8BBA47D]
Трек 3 точное извлечение (доверие 53) [26B7DDC8]
Трек 4 точное извлечение (доверие 53) [B39A3418]
Трек 5 точное извлечение (доверие 52) [6F2245F8]
Трек 6 точное извлечение (доверие 52) [A07677A2]
Трек 7 точное извлечение (доверие 53) [52E99DF9]
Трек 8 точное извлечение (доверие 53) [05401C85]
Трек 9 точное извлечение (доверие 53) [800E8012]
Трек 10 точное извлечение (доверие 53) [F6D14053]
Все треки извлечены точно
Конец отчёта




Alternative download links



Related MP3 FLAC to John Lee Hooker - Boom Boom (1992)
Feedback
All rights reserved.
WEBBG.com © 2000-2018