Katalize - Tribe: Journey Through the Spirit
MP3 FLAC WMA APE HD

Katalize - Tribe: Journey Through the Spirit

Artist: Katalize
Title Of Album: Katalize - Tribe: Journey Through the Spirit
Year Of Release: October 3, 2006
Label: Rex Recordings Inc
Genre: New Age, Electronic
Quality: FLAC
Bitrate: lossless image+CUE +LOG +COVER
Total Size: 300,60 Mb
Tracklist:
01. Blessing of the Earth (6:05)
02. Walk of Tears (5:14)
03. Spirit Dance (6:05)
04. Shamans Call (5:00)
05. Healing Song (5:04)
06. Mother Earth (4:39)
07. Arikara (5:21)
08. Blue Sage (5:50)
09. River of Sand (4:23)
10. Stomp Dance (2:45)
11. Sacred Mask Dance (3:07)
Exact Audio Copy V0.99 prebeta 5 from 4. May 2009
EAC extraction logfile from 14. June 2010, 19:39
Katalize / Tribe - Journey Through the Spirit
Used drive : PIONEER DVD-RW DVR-215D Adapter: 2 ID: 0
Read mode : Secure
Utilize accurate stream : Yes
Defeat audio cache : Yes
Make use of C2 pointers : No
Read offset correction : 48
Overread into Lead-In and Lead-Out : No
Fill up missing offset samples with silence : Yes
Delete leading and trailing silent blocks : No
Null samples used in CRC calculations : Yes
Used interface : Installed external ASPI interface
Used output format : User Defined Encoder
Selected bitrate : 768 kBit/s
Quality : High
Add ID3 tag : No
Command line compressor : C:Program FilesExact Audio CopyFLACFLAC.EXE
Additional command line options : -T "DATE=%y" -T "GENRE=%m" -8 -V %s
TOC of the extracted CD
Track | Start | Length | Start sector | End sector
---------------------------------------------------------
1 | 0:00.00 | 6:04.68 | 0 | 27367
2 | 6:04.68 | 5:14.23 | 27368 | 50940
3 | 11:19.16 | 6:05.19 | 50941 | 78334
4 | 17:24.35 | 4:59.45 | 78335 | 100804
5 | 22:24.05 | 5:04.19 | 100805 | 123623
6 | 27:28.24 | 4:38.66 | 123624 | 144539
7 | 32:07.15 | 5:21.05 | 144540 | 168619
8 | 37:28.20 | 5:49.67 | 168620 | 194861
9 | 43:18.12 | 4:23.25 | 194862 | 214611
10 | 47:41.37 | 2:45.04 | 214612 | 226990
11 | 50:26.41 | 3:07.36 | 226991 | 241051
Range status and errors
Selected range
Filename D:torrentripped by boccadorKatalize - Tribe - Journey Through the SpiritKatalize - Tribe - Journey Through the Spirit.wav
Peak level 97.7 %
Range quality 100.0 %
Test CRC 89AF27F0
Copy CRC 89AF27F0
Copy OK
No errors occurred
AccurateRip summary
Track 1 not present in database
Track 2 not present in database
Track 3 not present in database
Track 4 not present in database
Track 5 not present in database
Track 6 not present in database
Track 7 not present in database
Track 8 not present in database
Track 9 not present in database
Track 10 not present in database
Track 11 not present in database
None of the tracks are present in the AccurateRip database
End of status report
Download Katalize - Tribe: Journey Through the Spirit :
turbobit.net:
hotfile.com
Rapidshare:
Pass: israbox.download
Thanks to the original Publicist "boccador"



Alternative download links



Related MP3 FLAC to Katalize - Tribe: Journey Through the Spirit
Feedback
All rights reserved.
WEBBG.com © 2000-2018