Straight No Chaser - Six Pack (2009)
MP3 FLAC WMA APE HD

Straight No Chaser - Six Pack (2009)

Artist: Straight No Chaser
Title Of Album: Six Pack
Year Of Release: 2009
Genre: Acapella, Jazz, Pop
Quality: FLAC (*.flac)
Bitrate: lossless
Total Time: 43:20
Total Size: 113 mb
Tracklist:
01. Rehab (2:41)
02. I'm Yours / Somewhere Over the Rainbow (3:34)
03. The Man Who Can't Be Moved (3:51)
04. Signed, Sealed, Delivered I'm Yours / I Was Made to Love Her (2:41)
05. You Send Me (2:45)
06. Can't Take My Eyes Off of You (3:26)
Exact Audio Copy V0.99 prebeta 4 from 23. January 2008
Отчёт EAC об извлечении, выполненном 20. ноября 2010, 12:08
Straight No Chaser / Six Pack
Дисковод: ATAPI iHAS424 A Adapter: 0 ID: 0
Режим чтения : Достоверность
Использование точного потока : Да
Отключение кэша аудио : Да
Использование указателей C2 : Нет
Коррекция смещения при чтении : 6
Способность читать области Lead-in и Lead-out : Нет
Заполнение пропущенных сэмплов тишиной : Да
Удаление блоков с тишиной в начале и конце : Нет
При вычислениях CRC использовались нулевые сэмплы : Да
Интерфейс : Установленный внешний ASPI-интерфейс
Выходной формат : Пользовательский кодировщик
Выбранный битрейт : 1024 kBit/s
Качество : Высокий
Добавление ID3-тэга : Нет
Утилита сжатия : C:Program FilesExact Audio CopyFLACFLAC.EXE
Дополнительные параметры : -5 -V -T "ARTIST=%a" -T "TITLE=%t" -T "ALBUM=%g" -T "DATE=%y" -T "TRACKNUMBER=%n" -T "GENRE=%m" -T "COMMENT=%e" %s -o %d
TOC извлечённого CD
Трек | Старт | Длительность | Начальный сектор | Конечный сектор
---------------------------------------------------------------------
1 | 0:00.00 | 2:41.30 | 0 | 12104
2 | 2:41.30 | 3:34.67 | 12105 | 28221
3 | 6:16.22 | 3:51.30 | 28222 | 45576
4 | 10:07.52 | 2:41.25 | 45577 | 57676
5 | 12:49.02 | 2:45.30 | 57677 | 70081
6 | 15:34.32 | 3:26.21 | 70082 | 85552
Характеристики диапазона извлечения и сообщения об ошибках
Выбранный диапазон
Имя файла I:BitCometStraight No Chaser(flac)2009-Six PackStraight No Chaser - Six Pack.wav
Пиковый уровень 99.8 %
Качество диапазона 100.0 %
CRC теста 7FE505B3
CRC копии 7FE505B3
Копирование... OK
Ошибок не произошло
AccurateRip: сводка
Трек 1 точное извлечение (доверие 1) [83A8C9E7]
Трек 2 точное извлечение (доверие 1) [D9D410A2]
Трек 3 точное извлечение (доверие 1) [FF41D8DF]
Трек 4 точное извлечение (доверие 1) [F1B40114]
Трек 5 точное извлечение (доверие 1) [52023595]
Трек 6 точное извлечение (доверие 1) [88E2D49A]
Все треки извлечены точно
Конец отчёта




Alternative download links

Hotfile.com Fileserve.com

Related MP3 FLAC to Straight No Chaser - Six Pack (2009)
Feedback
All rights reserved.
WEBBG.com © 2000-2018