Lou Bega - Free Again (2010)
MP3 FLAC WMA APE HD

Lou Bega - Free Again (2010)

Artist: Lou Bega
Title Of Album: Free Again
Year Of Release: 2010
Label: DA Music 872488-2
Genre: Pop/Dance/Afro-Latin
Quality: Lossless
Bitrate: FLAC image, cue, log
Total Time: 00:40:12
Total Size: 316 MB (+3%)
WebSite: n/a
New album from "mambo king" and gentleman Lou Bega, released 8 June 2010. The same cheerful tunes and spicy lyrics, as always. Recommended for summer holidays chilling. ;)
Tracklist
1. Boyfriend (02:52)
2. Sweet like Cola (03:25)
3. Mommy Is Hot (03:51)
4. Jump Into My Bed (03:34)
5. I'm A Singer (03:11)
6. Beautiful World (03:22)
7. A Man Is Not A Woman (02:57)
8. My Day (03:10)
9. Lucky Punch (02:31)
10. You'r A Liar (02:44)
11. 1 No.1 (02:00)
12. Ballig (03:36)
13. Josephine's Jeans (02:59)
Total time 00:40:12
Exact Audio Copy V0.99 prebeta 5 from 4. May 2009
Отчёт EAC об извлечении, выполненном 8. июня 2010, 17:50
Lou Bega / Free Again
Дисковод: PIONEER DVD-RW DVR-112D Adapter: 1 ID: 0
Режим чтения : Достоверность
Использование точного потока : Да
Отключение кэша аудио : Да
Использование указателей C2 : Нет
Коррекция смещения при чтении : 48
Способность читать области Lead-in и Lead-out : Нет
Заполнение пропущенных сэмплов тишиной : Да
Удаление блоков с тишиной в начале и конце : Нет
При вычислениях CRC использовались нулевые сэмплы : Да
Интерфейс : Установленный внешний ASPI-интерфейс
Выходной формат : Внутренние WAV-операции
Формат сэмплов : 44.100 Гц; 16 бит; стерео
TOC извлечённого CD
Трек | Старт | Длительность | Начальный сектор | Конечный сектор
---------------------------------------------------------------------
1 | 0:00.00 | 2:52.68 | 0 | 12967
2 | 2:52.68 | 3:25.20 | 12968 | 28362
3 | 6:18.13 | 3:51.70 | 28363 | 45757
4 | 10:10.08 | 3:34.42 | 45758 | 61849
5 | 13:44.50 | 3:11.52 | 61850 | 76226
6 | 16:56.27 | 3:22.54 | 76227 | 91430
7 | 20:19.06 | 2:57.10 | 91431 | 104715
8 | 23:16.16 | 3:10.45 | 104716 | 119010
9 | 26:26.61 | 2:31.69 | 119011 | 130404
10 | 28:58.55 | 2:44.25 | 130405 | 142729
11 | 31:43.05 | 2:00.73 | 142730 | 151802
12 | 33:44.03 | 3:36.24 | 151803 | 168026
13 | 37:20.27 | 2:59.57 | 168027 | 181508
Характеристики диапазона извлечения и сообщения об ошибках
Выбранный диапазон
Имя файла C:Documents and SettingsАдминистраторРабочий столLou Bega2010 - Free AgainLou Bega - Free Again.wav
Пиковый уровень 100.0 %
Качество диапазона 99.5 %
CRC копии 42D92C06
Копирование... OK
Ошибок не произошло

AccurateRip: сводка

Трек 1 нет в базе данных
Трек 2 нет в базе данных
Трек 3 нет в базе данных
Трек 4 нет в базе данных
Трек 5 нет в базе данных
Трек 6 нет в базе данных
Трек 7 нет в базе данных
Трек 8 нет в базе данных
Трек 9 нет в базе данных
Трек 10 нет в базе данных
Трек 11 нет в базе данных
Трек 12 нет в базе данных
Трек 13 нет в базе данных

Ни одного трека нет в базе AccurateRip
Конец отчёта
| |
| |
Pass: home




Alternative download links



Related MP3 FLAC to Lou Bega - Free Again (2010)
Feedback
All rights reserved.
WEBBG.com © 2000-2018