Trio Globo - Trio Globo (1994)
MP3 FLAC WMA APE HD

Trio Globo - Trio Globo (1994)

Artist: Trio Globo
Title Of Album: Trio Globo
Year Of Release: 1994
Genre: World Fusion, Post-Bop
Quality: Flac(Image+Cue+Log+Covers)/mp3
Bitrate: Lossless/320kbps
Total Time: 52:52 min
Total Size: 262Mb/130Mb
Tracklist:
1. Lumbriga
2. Darkness
3. G-Chant
4. Listen to the Night
5. Nandi's Wish
6. Brazillian Dorian Dream
7. Living of Breath
8. Rising
9. Golden Seal
10. Coda
Eugene Friesen cello, voice
Howard Levy piano, pennywhistle, Hohner diatonic harmonicas, double ocarina
Glen Velez frame drums, bodhranm wood drum, shakers, sruti box, overtone singing, tar, cymbals, brushes, riq, doira, dulcimer, Filipino buzz sticks, tambourim
Exact Audio Copy V0.99 prebeta 4 from 23. January 2008
EAC extraction logfile from 13. July 2008, 0:31
Trio Globo / Trio Globo
Used drive : TSSTcorpCD/DVDW SH-S182M Adapter: 2 ID: 1
Read mode : Secure
Utilize accurate stream : Yes
Defeat audio cache : Yes
Make use of C2 pointers : No
Read offset correction : 6
Overread into Lead-In and Lead-Out : No
Fill up missing offset samples with silence : Yes
Delete leading and trailing silent blocks : No
Null samples used in CRC calculations : Yes
Used interface : Installed external ASPI interface
Used output format : User Defined Encoder
Selected bitrate : 1024 kBit/s
Quality : High
Add ID3 tag : No
Command line compressor : C:Program FilesExact Audio CopyFLACFLAC.EXE
Additional command line options : -6 -V -T "ARTIST=%a" -T "TITLE=%t" -T "ALBUM=%g" -T "DATE=%y" -T "TRACKNUMBER=%n" -T "GENRE=%m" -T "COMMENT=%e" %s -o %d
TOC of the extracted CD
Track | Start | Length | Start sector | End sector
---------------------------------------------------------
1 | 0:00.33 | 4:02.37 | 33 | 18219
2 | 4:02.70 | 6:30.25 | 18220 | 47494
3 | 10:33.20 | 5:38.60 | 47495 | 72904
4 | 16:12.05 | 7:09.63 | 72905 | 105142
5 | 23:21.68 | 5:48.35 | 105143 | 131277
6 | 29:10.28 | 7:26.07 | 131278 | 164734
7 | 36:36.35 | 2:39.00 | 164735 | 176659
8 | 39:15.35 | 4:42.58 | 176660 | 197867
9 | 43:58.18 | 6:43.20 | 197868 | 228112
10 | 50:41.38 | 2:10.30 | 228113 | 237892
Range status and errors
Selected range
Filename F:zTrio Globo - Trio Globo.wav
Peak level 98.8 %
Range quality 99.9 %
Copy CRC 1E117E14
Copy OK
No errors occurred

AccurateRip summary

Track 1 not present in database
Track 2 not present in database
Track 3 not present in database
Track 4 not present in database
Track 5 not present in database
Track 6 not present in database
Track 7 not present in database
Track 8 not present in database
Track 9 not present in database
Track 10 not present in database

None of the tracks are present in the AccurateRip database
End of status report
Lossless

MP3




Alternative download links

hotfile.com-1 hotfile.com-2 uploaded.to-1 uploaded.to-2 HOTFILE UPLOADED

Related MP3 FLAC to Trio Globo - Trio Globo (1994)
Feedback
All rights reserved.
WEBBG.com © 2000-2018