Nguyen Le Duos with Paolo Fresu, Dhafer Youssef - Homescape (2006)
MP3 FLAC WMA APE HD

Nguyen Le Duos with Paolo Fresu, Dhafer Youssef - Homescape (2006)

  • Genre: Music, Jazz, FLAC / APE
  • Formats: MP3 FLAC WMA HD APE
  • Album Size: 1470 mb.
  • Archive: ZIP RAR
Artist: Nguyen Le Duos with Paolo Fresu, Dhafer Youssef
Title Of Album: Homescape
Year Of Release: 2006
Label: ACT Music
Genre: Jazz, Future Jazz
Quality: FLAC (Tracks,cue,log,full scans)|MP3
Bitrate: lossless | 320kbps
Total Time: 58:66 min
Total Size: 437 mb/220 mb (+rec)
TRACKLIST
01. Stranieri (Fresu, Paolo / Lê, Nguyên)
02. Byzance (Youssef, Dhafer / Lê, Nguyên)
03. Muqqam (Youssef, Dhafer)
04. Mali Iwa (Lê, Nguyên)
05. Zafaran (Youssef, Dhafer / Lê, Nguyên)
06. Domus de Janas (Fresu, Paolo / Lê, Nguyên)
07. Kithâra (Youssef, Dhafer)
08. Chelsea Bridge (Strayhorn, Billy)
09. Safina (Youssef, Dhafer / Lê, Nguyên)
10. Des Prés (Fresu, Paolo / Lê, Nguyên)
11. Thang Long (Lê, Nguyên)
12. Neon (Fresu, Paolo / Lê, Nguyên)
13. Mangustao (Borker, Dominique)
14. Lacrima Christi (Fresu, Paolo / Lê, Nguyên)
15. Beyti (Youssef, Dhafer / Lê, Nguyên)
Personnel:
Nguyen Le: acoustic, fretless, synthesiser, e-bow and Vietnamese guitars, computer programming and electronics;
Paolo Fresu: trumpet, flugelhorn and electronics;
Dhafer Youssef: oud, vocals and electronics.
Where does jazz stop and world music start? The boundaries are getting more blurred by the minute. We're all postmodernists now, and many musicians under fifty reflect a range of influences beyond those traditionally associated with their own core style. Some, like French-Vietnamese guitarist Nguyen Le , are so polyglot as to be practically beyond category.
Le started out down the cultural miscenegation road with his first band, the multi-ethnic Ultramarine, whose 1989 album, De, was named World Music Album of the Year by the radical French newspaper Liberation. He's continued to mix it up ever since—prominent genre-benders he's worked with include Miroslav Vitous , Trilok Gurtu, David Liebman, Paul McCandless , Peter Erskine and Mino Cinelu . In the late 1990s Le became increasingly interested in Maghrebi music, working with Algerian singers Safy Boutella and Cheb Mami, and in 1998 he brought Maghrebi and Vietnamese musicians together on the album Maghrebi & Friends.
None of this, however, can prepare you for the galaxy of sound sources on Homescape, a series of alternating duets with Sardinian trumpeter Paolo Fresu and Tunisian oud player Dhafer Youssef. Some of these sources are developed and explored, others are referred to only in passing, and they include—but aren't limited to—post-Hendrix rock, Milesian harmon-mute free improv, Maghrebi trance music, Ellingtonia, ambient, a Papua New Guinea vocal choir (sampled and replayed backwards), Delta blues, Vietnamese folk tunes, flamenco, Iranian modes, a Sardinian choir, Australian aboriginal ritual music, French chanson, Gregorian chant, and Indonesian gamelan/gong music.
Exact Audio Copy V0.99 prebeta 4 from 23. January 2008
EAC extraction logfile from 28. February 2010, 23:52
Nguyen Le Duos with Paolo Fresu, Dhafer Youssef / Homescape
Used drive : TSSTcorpCDDVDW TS-H653N Adapter: 2 ID: 2
Read mode : Secure
Utilize accurate stream : Yes
Defeat audio cache : Yes
Make use of C2 pointers : No
Read offset correction : 6
Overread into Lead-In and Lead-Out : No
Fill up missing offset samples with silence : Yes
Delete leading and trailing silent blocks : No
Null samples used in CRC calculations : Yes
Used interface : Native Win32 interface for Win NT & 2000
Gap handling : Appended to previous track
Used output format : User Defined Encoder
Selected bitrate : 1024 kBit/s
Quality : High
Add ID3 tag : No
Command line compressor : C:Program FilesFLAC -flac.exe
Additional command line options : -5 -V -T "artist=%a" -T "title=%t" -T "album=%g" -T "date=%y" -T "tracknumber=%n" -T "genre=%m" -T comment="shared by pastafari cubensis" %s
TOC of the extracted CD
Track | Start | Length | Start sector | End sector
---------------------------------------------------------
1 | 0:00.00 | 5:59.64 | 0 | 26988
2 | 5:59.64 | 4:24.58 | 26989 | 46846
3 | 10:24.47 | 2:43.64 | 46847 | 59135
4 | 13:08.36 | 6:27.10 | 59136 | 88170
5 | 19:35.46 | 6:01.58 | 88171 | 115303
6 | 25:37.29 | 2:18.03 | 115304 | 125656
7 | 27:55.32 | 2:18.22 | 125657 | 136028
8 | 30:13.54 | 3:00.16 | 136029 | 149544
9 | 33:13.70 | 3:27.40 | 149545 | 165109
10 | 36:41.35 | 2:19.07 | 165110 | 175541
11 | 39:00.42 | 5:33.33 | 175542 | 200549
12 | 44:34.00 | 3:11.68 | 200550 | 214942
13 | 47:45.68 | 7:25.52 | 214943 | 248369
14 | 55:11.45 | 3:14.18 | 248370 | 262937
15 | 58:25.63 | 2:52.64 | 262938 | 275901
Track 1
Filename C:CD_bufferNguyen Le Duos with Paolo Fresu, Dhafer Youssef - 2006 - Homescape [FLAC]1- Stranieri (Paolo Fresu - Nguyкn Lк).wav
Pre-gap length 0:00:02.00
Peak level 97.7 %
Track quality 100.0 %
Test CRC 7F55D1F3
Copy CRC 7F55D1F3
Copy OK
Track 2
Filename C:CD_bufferNguyen Le Duos with Paolo Fresu, Dhafer Youssef - 2006 - Homescape [FLAC]2- Byzance (Dhafer Youssef - Nguyкn Lк).wav
Peak level 97.7 %
Track quality 100.0 %
Test CRC 22E39643
Copy CRC 22E39643
Copy OK
Track 3
Filename C:CD_bufferNguyen Le Duos with Paolo Fresu, Dhafer Youssef - 2006 - Homescape [FLAC]3- Muqqam (Dhafer Youssef).wav
Peak level 97.7 %
Track quality 100.0 %
Test CRC A2332060
Copy CRC A2332060
Copy OK
Track 4
Filename C:CD_bufferNguyen Le Duos with Paolo Fresu, Dhafer Youssef - 2006 - Homescape [FLAC]4- Mali Iwa (Nguyкn Lк).wav
Peak level 97.7 %
Track quality 100.0 %
Test CRC B1A8D317
Copy CRC B1A8D317
Copy OK
Track 5
Filename C:CD_bufferNguyen Le Duos with Paolo Fresu, Dhafer Youssef - 2006 - Homescape [FLAC]5- Zafaran (Dhafer Youssef - Nguyкn Lк).wav
Peak level 97.7 %
Track quality 100.0 %
Test CRC 7BDC07E3
Copy CRC 7BDC07E3
Copy OK
Track 6
Filename C:CD_bufferNguyen Le Duos with Paolo Fresu, Dhafer Youssef - 2006 - Homescape [FLAC]6- Domus de Janas (Paolo Fresu - Nguyкn Lк).wav
Peak level 97.7 %
Track quality 100.0 %
Test CRC 7782527E
Copy CRC 7782527E
Copy OK
Track 7
Filename C:CD_bufferNguyen Le Duos with Paolo Fresu, Dhafer Youssef - 2006 - Homescape [FLAC]7- Kithвra (Dhafer Youssef).wav
Peak level 97.7 %
Track quality 100.0 %
Test CRC 93A6E962
Copy CRC 93A6E962
Copy OK
Track 8
Filename C:CD_bufferNguyen Le Duos with Paolo Fresu, Dhafer Youssef - 2006 - Homescape [FLAC]8- Chelsea Bridge (Billy Strayhorn).wav
Peak level 97.7 %
Track quality 100.0 %
Test CRC CABAE8FB
Copy CRC CABAE8FB
Copy OK
Track 9
Filename C:CD_bufferNguyen Le Duos with Paolo Fresu, Dhafer Youssef - 2006 - Homescape [FLAC]9- Safina (Dhafer Youssef - Nguyкn Lк).wav
Peak level 97.7 %
Track quality 99.9 %
Test CRC 187D3719
Copy CRC 187D3719
Copy OK
Track 10
Filename C:CD_bufferNguyen Le Duos with Paolo Fresu, Dhafer Youssef - 2006 - Homescape [FLAC]10- Des Prйs (Paolo Fresu - Nguyкn Lк).wav
Peak level 97.7 %
Track quality 100.0 %
Test CRC 17565075
Copy CRC 17565075
Copy OK
Track 11
Filename C:CD_bufferNguyen Le Duos with Paolo Fresu, Dhafer Youssef - 2006 - Homescape [FLAC]11- Thang Long (Nguyкn Lк).wav
Peak level 97.7 %
Track quality 100.0 %
Test CRC 7BF45291
Copy CRC 7BF45291
Copy OK
Track 12
Filename C:CD_bufferNguyen Le Duos with Paolo Fresu, Dhafer Youssef - 2006 - Homescape [FLAC]12- Neon (Paolo Fresu - Nguyкn Lк).wav
Peak level 97.7 %
Track quality 99.9 %
Test CRC E1D9F042
Copy CRC E1D9F042
Copy OK
Track 13
Filename C:CD_bufferNguyen Le Duos with Paolo Fresu, Dhafer Youssef - 2006 - Homescape [FLAC]13- Mangustao (Dominique Borker).wav
Peak level 97.7 %
Track quality 100.0 %
Test CRC A9AC2E35
Copy CRC A9AC2E35
Copy OK
Track 14
Filename C:CD_bufferNguyen Le Duos with Paolo Fresu, Dhafer Youssef - 2006 - Homescape [FLAC]14- Lacrima Christi (Paolo Fresu - Nguyкn Lк).wav
Peak level 97.7 %
Track quality 99.9 %
Test CRC E952FAA4
Copy CRC E952FAA4
Copy OK
Track 15
Filename C:CD_bufferNguyen Le Duos with Paolo Fresu, Dhafer Youssef - 2006 - Homescape [FLAC]15- Beyti (Dhafer Youssef - Nguyкn Lк).wav
Peak level 97.7 %
Track quality 100.0 %
Test CRC 7A218D09
Copy CRC 7A218D09
Copy OK
No errors occurred
End of status report
DOWNLOAD Lossless
Filesonic.com:
Fileserve.com:
DOWNLOAD MP3
Filesonic.com:
Fileserve.com:




Alternative download links

part1 part2 part3 part1 part2

Related MP3 FLAC to Nguyen Le Duos with Paolo Fresu, Dhafer Youssef - Homescape (2006)
Feedback
All rights reserved.
WEBBG.com © 2000-2018