Chris De Burgh - Crusader (1990) ape
MP3 FLAC WMA APE HD

Chris De Burgh - Crusader (1990) ape

Artist: Chris De Burgh
Title Of Album: Crusader
Year Of Release: October 25, 1990
Label: A&M
Genre: Rock
Quality: APE(Image+Cue+Log+Scans)/mp3
Bitrate: Lossless/320kbps
Total Time: 44:02 min
Total Size: 212Mb/108Mb
Tracklist:
1. Carry On - Chris de Burgh, Ball, Eric
2. I Had the Love in My Eyes
3. Something Else Again
4. The Girl With April in Her Eyes
5. Just in Time
6. Carry On (Reprise)
7. The Devil's Eye
8. It's Such a Long Way Home
9. Old-Fashioned People
10. Quiet Moments
11. Crusader: The Fall of Jerusalem/In the Court of Saladin/The ...
12. You and Me - Chris de Burgh, Bishop, L.
Exact Audio Copy V0.99 prebeta 3 from 28. July 2007
Отчёт EAC об извлечении, выполненном 18. июля 2010, 1:31
Chris De Burgh / Crusader
Дисковод: Optiarc DVD RW AD-7560A Adapter: 0 ID: 0
Режим чтения : Достоверность
Использование точного потока : Да
Отключение кэша аудио : Да
Использование указателей C2 : Нет
Коррекция смещения при чтении : 6
Способность читать области Lead-in и Lead-out : Нет
Заполнение пропущенных сэмплов тишиной : Да
Удаление блоков с тишиной в начале и конце : Нет
При вычислениях CRC использовались нулевые сэмплы : Да
Интерфейс : Встроенный Win32-интерфейс для Win NT/2000
Выходной формат : Внутренние WAV-операции
Формат сэмплов : 44.100 Гц; 16 бит; стерео
TOC извлечённого CD
Трек | Старт | Длительность | Начальный сектор | Конечный сектор
---------------------------------------------------------------------
1 | 0:00.32 | 3:57.68 | 32 | 17874
2 | 3:58.25 | 3:30.12 | 17875 | 33636
3 | 7:28.37 | 3:46.65 | 33637 | 50651
4 | 11:15.27 | 4:14.65 | 50652 | 69766
5 | 15:30.17 | 5:13.65 | 69767 | 93306
6 | 20:44.07 | 0:33.58 | 93307 | 95839
7 | 21:17.65 | 4:34.30 | 95840 | 116419
8 | 25:52.20 | 2:51.65 | 116420 | 129309
9 | 28:44.10 | 3:28.05 | 129310 | 144914
10 | 32:12.15 | 1:41.42 | 144915 | 152531
11 | 33:53.57 | 8:54.68 | 152532 | 192649
12 | 42:48.50 | 1:14.15 | 192650 | 198214
Характеристики диапазона извлечения и сообщения об ошибках
Выбранный диапазон
Имя файла C:UsersАлександрDesktopCrusaderChris De Burgh - Crusader.wav
Пиковый уровень 92.5 %
Качество диапазона 99.9 %
CRC копии CDC08A11
Копирование... OK
Ошибок не произошло

AccurateRip: сводка

Трек 1 точность не определена (достоверность 31) [6E6A11E4], AccurateRip вернул [3B38D712]
Трек 2 точность не определена (достоверность 32) [F89DCCFE], AccurateRip вернул [E87A8612]
Трек 3 точность не определена (достоверность 32) [8DE6D7CD], AccurateRip вернул [8086CC37]
Трек 4 точное извлечение (доверие 33) [3D8FDC67]
Трек 5 точное извлечение (доверие 32) [5D0019E7]
Трек 6 точное извлечение (доверие 32) [136A77CA]
Трек 7 точное извлечение (доверие 31) [B0E9D80D]
Трек 8 точное извлечение (доверие 32) [D3500EDF]
Трек 9 точное извлечение (доверие 32) [ABC9A000]
Трек 10 точное извлечение (доверие 32) [619FAFD3]
Трек 11 точное извлечение (доверие 32) [632E0115]
Трек 12 точное извлечение (доверие 32) [BF397026]

9 трек(и) скопированы точно
3 трек(и) не удалось проверить на точность
Некоторые треки не прошли проверку на точность
Конец отчёта
Crusader is Chris de Burgh's fourth album, released by A&M Records in 1979. The album was produced by Andrew Powell, who has worked with the Alan Parsons Project in many of their early albums. The musicians on the album also came from the Alan Parsons Project.
MY CD COLLECTION
Download




Alternative download links

Uploaded

Related MP3 FLAC to Chris De Burgh - Crusader (1990) ape
Feedback
All rights reserved.
WEBBG.com © 2000-2018