Uriah Heep - Look At Yourself Japan 20bit K2 Remasters , Victor VICP-60817 (1999)
MP3 FLAC WMA APE HD

Uriah Heep - Look At Yourself Japan 20bit K2 Remasters , Victor VICP-60817 (1999)

Artist: Uriah Heep
Title Of Album: Look At Yourself [Japan 20bit K2 Remasters , Victor VICP-60817]
Year Of Release: 1999
Label: Victor
Genre: Rock
Quality: FLAC (image+.cue) + log
Bitrate: Lossless
Total Time: 41:23
Total Size: 260 Mb
Uriah Heep are a British rock group formed in London, England, in 1969 and regarded (along with Deep Purple and Led Zeppelin) as a seminal classic hard rock act of the 1970s. Uriah Heep's progressive/art rock/heavy metal fusion's distinctive features have always been massive keyboards sound, strong vocal harmonies and (in the early years) David Byron's operatic vocals. Twelve of the band's albums have made it to the UK Albums Chart (Return to Fantasy reached #7 in 1975) while of the fifteen Billboard 200 Uriah Heep albums Demons and Wizards was the most successful (#23, 1972). In the mid-70s the band had phenomenal success in Germany where the «Lady in Black» single spent 13 weeks at #1.
Tracklist:
1. Look at Yourself (5:12)
2. I Wanna be Free (4:00)
3. July Morning (10:35)
4. Tears in My Eyes (5:02)
5. Shadows of Grief (8:42)
6. What Should be Done (4:14)
7. Love Machine (3:38)
Exact Audio Copy V0.99 prebeta 5 from 4. May 2009
EAC extraction logfile from 19. April 2011, 12:01
Uriah Heep / Look At Yourself
Used drive : TSSTcorpCD/DVDW SH-S183A Adapter: 2 ID: 0
Read mode : Secure
Utilize accurate stream : Yes
Defeat audio cache : Yes
Make use of C2 pointers : No
Read offset correction : 6
Overread into Lead-In and Lead-Out : No
Fill up missing offset samples with silence : Yes
Delete leading and trailing silent blocks : No
Null samples used in CRC calculations : Yes
Used interface : Native Win32 interface for Win NT & 2000
Used output format : User Defined Encoder
Selected bitrate : 1024 kBit/s
Quality : High
Add ID3 tag : No
Command line compressor : C:Program FilesExact Audio CopyFlacflac.exe
Additional command line options : -V -8 -T "artist=%a" -T "title=%t" -T "album=%g" -T "date=%y" -T "tracknumber=%n" -T "genre=%m" %s
TOC of the extracted CD
Track | Start | Length | Start sector | End sector
---------------------------------------------------------
1 | 0:00.00 | 5:12.02 | 0 | 23401
2 | 5:12.02 | 4:00.60 | 23402 | 41461
3 | 9:12.62 | 10:35.55 | 41462 | 89141
4 | 19:48.42 | 5:02.03 | 89142 | 111794
5 | 24:50.45 | 8:42.17 | 111795 | 150961
6 | 33:32.62 | 4:14.28 | 150962 | 170039
7 | 37:47.15 | 3:38.72 | 170040 | 186461
Range status and errors
Selected range
Filename H:Uriah Heep - Look At YourselfUriah Heep - Look At Yourself.wav
Peak level 97.9 %
Range quality 99.9 %
Test CRC 0247D454
Copy CRC 0247D454
Copy OK
No errors occurred
AccurateRip summary
Track 1 cannot be verified as accurate (confidence 2) [C1F1070D], AccurateRip returned [A644454D]
Track 2 cannot be verified as accurate (confidence 2) [C1FFA340], AccurateRip returned [634F0DF0]
Track 3 cannot be verified as accurate (confidence 2) [1130FFFB], AccurateRip returned [B08A84DB]
Track 4 cannot be verified as accurate (confidence 2) [63FB845B], AccurateRip returned [D6AAE93B]
Track 5 cannot be verified as accurate (confidence 2) [E4B40FE6], AccurateRip returned [EBE015D6]
Track 6 cannot be verified as accurate (confidence 2) [768C1177], AccurateRip returned [29F35D7E]
Track 7 cannot be verified as accurate (confidence 2) [0CB67B4E], AccurateRip returned [43E3DC17]
No tracks could be verified as accurate
You may have a different pressing from the one(s) in the database
End of status report
FileSonic
Turbobit



Alternative download links

DOWNLOAD

Related MP3 FLAC to Uriah Heep - Look At Yourself Japan 20bit K2 Remasters , Victor VICP-60817 (1999)
Feedback
All rights reserved.
WEBBG.com © 2000-2018