Teresa Perez - Sweeeeet Sounds! (2010)
MP3 FLAC WMA APE HD

Teresa Perez - Sweeeeet Sounds! (2010)

Artist: Teresa Perez
Title Of Album: Sweeeeet Sounds!
Year Of Release: July 20, 2010
Label: Golden String
Genre: Classical
Quality: APE (image, cue, log, scans) | MP3
Bitrate: lossless | 320 kbps
Total Time: 01:07:42 min
Total Size: 302.71 | 156.5 mb (+5% recov.)
WebSite:
Sweeeeet Sounds! is a big budget production by FIM standards and features the wonderful cellist Teresa Perez, accompanied by The All Star Percussion Ensemble and John Whitney Jazz Trio. Arranged by Maestro Harold Farberman, a well known American conductor, composer, and percussionist. Under his baton, these pieces were played by Teresa Perez with wonderful ingenuity and improvisation. As the album name so denotes the music is very beautiful and the sound is so sweet, blending classical, traditional and jazz altogether so well together for timeless listening. Released on the super high definition format: Digital eXtreme Definition, it is playable on all CD players.
Tracklist
1. Sweet Sounds (from String Quartet Serenades by J. Haydn)
2. Hungarian-Latin Double Dance (from Hungarian Dance No. 5 by J. Brahms)
3. Schubert Song (based on Ave Maria)
4. Up a Lazy River (H. Carmichael)
5. Chinese Romance (based on Faded Memory and Autumn Moon over a Placid Lake)
6. Melody Transformed (based on Melody by A. Rubinstein)
7. Summertime (G. Gershwin)
8. Georgia On My Mind (H. Carmichael)
9. Von Weber's Soundweb (based on Adagio and Rondo)
10. Largacel - Agustin Lara (based on Granada)
Bonus Tracks:
11. Swan (Camille Saint-Saens)
12. Farewell
Musicians:
Teresa Perez, cello
All Star Percussion Ensemble
John Whitney Jazz Trio
Harold Farberman, conductor
Exact Audio Copy V0.99 prebeta 5 from 4. May 2009
Отчёт EAC об извлечении, выполненном 14. июня 2010, 23:32
Teresa Perez / Sweeet Sounds!
Дисковод: PLEXTOR CD-R PREMIUM2 Adapter: 2 ID: 0
Режим чтения : Достоверность
Использование точного потока : Да
Отключение кэша аудио : Да
Использование указателей C2 : Нет
Коррекция смещения при чтении : 30
Способность читать области Lead-in и Lead-out : Нет
Заполнение пропущенных сэмплов тишиной : Да
Удаление блоков с тишиной в начале и конце : Нет
При вычислениях CRC использовались нулевые сэмплы : Нет
Интерфейс : Установленный внешний ASPI-интерфейс
Выходной формат : Внутренние WAV-операции
Формат сэмплов : 44.100 Гц; 16 бит; стерео
TOC извлечённого CD
Трек | Старт | Длительность | Начальный сектор | Конечный сектор
---------------------------------------------------------------------
1 | 0:00.00 | 8:16.28 | 0 | 37227
2 | 8:16.28 | 3:19.40 | 37228 | 52192
3 | 11:35.68 | 6:02.56 | 52193 | 79398
4 | 17:38.49 | 5:03.09 | 79399 | 102132
5 | 22:41.58 | 5:56.32 | 102133 | 128864
6 | 28:38.15 | 4:47.61 | 128865 | 150450
7 | 33:26.01 | 7:04.00 | 150451 | 182250
8 | 40:30.01 | 5:46.29 | 182251 | 208229
9 | 46:16.30 | 5:03.18 | 208230 | 230972
10 | 51:19.48 | 6:42.14 | 230973 | 261136
11 | 58:01.62 | 6:29.65 | 261137 | 290376
12 | 64:31.52 | 3:11.06 | 290377 | 304707
Характеристики диапазона извлечения и сообщения об ошибках
Выбранный диапазон
Имя файла G:MUSICDXDTeresa Perez - Sweeeeet Sounds! [GS DXD 005]Teresa Perez - Sweeeeet Sounds! [GS DXD 005].wav
Пиковый уровень 99.7 %
Качество диапазона 100.0 %
CRC копии 251CCF87
Копирование... OK
Ошибок не произошло

AccurateRip: сводка

Трек 1 нет в базе данных
Трек 2 нет в базе данных
Трек 3 нет в базе данных
Трек 4 нет в базе данных
Трек 5 нет в базе данных
Трек 6 нет в базе данных
Трек 7 нет в базе данных
Трек 8 нет в базе данных
Трек 9 нет в базе данных
Трек 10 нет в базе данных
Трек 11 нет в базе данных
Трек 12 нет в базе данных

Ни одного трека нет в базе AccurateRip
Конец отчёта
{FLAC}
Uploaded: |
Hotfile: |
Rapidshare: |
{MP3}
| |
{SCANS}




Alternative download links

part1 part2 part1 part2 part1 part2 Hotfile Uploaded Rapidshare Uploaded

Related MP3 FLAC to Teresa Perez - Sweeeeet Sounds! (2010)
Feedback
All rights reserved.
WEBBG.com © 2000-2018