Temple - Coming Home (2007)
MP3 FLAC WMA APE HD

Temple - Coming Home (2007)

Artist: Temple
Title Of Album: Coming Home
Year Of Release: 2007
Label: Sounds True
Genre: New Age
Quality: FLAC (image+.cue) + log
Bitrate: Lossless
Total Time: 57:20
Total Size: 326 Mb
Tracklist:
01. Coming Home (7:37)
02. L`chah Dodi (8:54)
03. Taste of Love (10:27)
04. V`taher (7:38)
05. Ima (6:51)
06. Ana El Na (8:05)
07. Shalom (7:48)
Exact Audio Copy V0.99 prebeta 5 from 4. May 2009
EAC extraction logfile from 22. April 2010, 13:48
Temple / Coming Home
Used drive : PIONEER DVD-RW DVR-215D Adapter: 2 ID: 1
Read mode : Secure
Utilize accurate stream : Yes
Defeat audio cache : Yes
Make use of C2 pointers : No
Read offset correction : 48
Overread into Lead-In and Lead-Out : No
Fill up missing offset samples with silence : Yes
Delete leading and trailing silent blocks : No
Null samples used in CRC calculations : Yes
Used interface : Installed external ASPI interface
Used output format : User Defined Encoder
Selected bitrate : 320 kBit/s
Quality : High
Add ID3 tag : No
Command line compressor : C:Program FilesFLACflac.exe
Additional command line options : -8 -V -T "ARTIST=%a" -T "ALBUM=%g" -T "DATE=%y" -T "GENRE=%m" %s -o %d
TOC of the extracted CD
Track | Start | Length | Start sector | End sector
---------------------------------------------------------
1 | 0:00.00 | 7:37.00 | 0 | 34274
2 | 7:37.00 | 8:53.53 | 34275 | 74302
3 | 16:30.53 | 10:27.19 | 74303 | 121346
4 | 26:57.72 | 7:37.48 | 121347 | 155669
5 | 34:35.45 | 6:51.22 | 155670 | 186516
6 | 41:26.67 | 8:05.07 | 186517 | 222898
7 | 49:31.74 | 7:48.33 | 222899 | 258031
Range status and errors
Selected range
Filename D:Temple - Coming HomeTemple - Coming Home.wav
Peak level 97.7 %
Range quality 99.9 %
Test CRC 4019B2CE
Copy CRC 4019B2CE
Copy OK
No errors occurred
AccurateRip summary
Track 1 not present in database
Track 2 not present in database
Track 3 not present in database
Track 4 not present in database
Track 5 not present in database
Track 6 not present in database
Track 7 not present in database
None of the tracks are present in the AccurateRip database
End of status report
FileSonic.com
Turbobit.net



Alternative download links

DOWNLOAD

Related MP3 FLAC to Temple - Coming Home (2007)
Feedback
All rights reserved.
WEBBG.com © 2000-2018