Quasimode - The Land of Freedom (2007)
MP3 FLAC WMA APE HD

Quasimode - The Land of Freedom (2007)

Artist: Quasimode
Title Of Album: The Land of Freedom
Year Of Release: 2007
Label: Geneon Pioneer Japan
Genre: Contemporary Jazz, Hard Bop
Quality: FLAC (image+.cue) + log
Bitrate: Lossless
Total Time: 00:56:31
Total Size: 384 Mb
An amazing second full length set from QUASIMODE - easily one of the most soulful combos working in the current club jazz underground. With a mixed club and Latin feel they deliver all their music live and so represent a new breed of Jazz bands who have gained a strong following with DJs and on the club circuit while all the time still thrilling live audiences. Their sound is based on authentic jazz rhythms from the 60s and 70s and has been linked with similar Jap-Jazz bands like SOIL & PIMP SESSION (BROWNSWOOD) and SLEEP WALKER. In fact "The Man From Nagpur" features MASATO NAKAMURA from Sleep Walker on saxophone. Other guests on the album include one of the world's greatest jazz vocalists CARMEN LUNDY on the song "Time Is Love".
Tracklist:
1 Over The Horizon 1:48
2 The Man From Nagpur 6:10
3 Object In The Mirror 5:28
4 Last Nine Days 6:48
5 Time Is Love 4:23
6 For Self Defense 5:28
7 Percussion Revolver 7:03
8 Raw Cotton Field 5:52
9 The Land Of Freedom 6:09
10 Dark Beauty 5:02
11 Over The Horizon (Reprise) 2:18
Exact Audio Copy V0.99 prebeta 5 from 4. May 2009
EAC extraction logfile from 28. April 2011, 21:14
Quasimode / The Land Of Freedom
Used drive : TEAC DW-552G Adapter: 1 ID: 0
Read mode : Secure
Utilize accurate stream : Yes
Defeat audio cache : Yes
Make use of C2 pointers : No
Read offset correction : 6
Overread into Lead-In and Lead-Out : No
Fill up missing offset samples with silence : Yes
Delete leading and trailing silent blocks : No
Null samples used in CRC calculations : Yes
Used interface : Installed external ASPI interface
Used output format : User Defined Encoder
Selected bitrate : 128 kBit/s
Quality : High
Add ID3 tag : No
Command line compressor : C:Program FilesExact Audio CopyFlacflac.exe
Additional command line options : -8 -V %s
TOC of the extracted CD
Track | Start | Length | Start sector | End sector
---------------------------------------------------------
1 | 0:00.00 | 1:48.35 | 0 | 8134
2 | 1:48.35 | 6:10.34 | 8135 | 35918
3 | 7:58.69 | 5:28.23 | 35919 | 60541
4 | 13:27.17 | 6:47.60 | 60542 | 91126
5 | 20:15.02 | 4:23.46 | 91127 | 110897
6 | 24:38.48 | 5:27.52 | 110898 | 135474
7 | 30:06.25 | 7:02.69 | 135475 | 167193
8 | 37:09.19 | 5:51.61 | 167194 | 193579
9 | 43:01.05 | 6:09.43 | 193580 | 221297
10 | 49:10.48 | 5:02.39 | 221298 | 243986
11 | 54:13.12 | 2:18.17 | 243987 | 254353
Range status and errors
Selected range
Filename D:Quasimode - The Land of FreedomQuasimode - The Land Of Freedom.wav
Peak level 96.6 %
Range quality 99.9 %
Test CRC 7074AB53
Copy CRC 7074AB53
Copy OK
No errors occurred
End of status report
FileSonic
Turbobit



Alternative download links

DOWNLOAD

Related MP3 FLAC to Quasimode - The Land of Freedom (2007)
Feedback
All rights reserved.
WEBBG.com © 2000-2018