Earl Hines And His Orchestra — 1941 (1992)
MP3 FLAC WMA APE HD

Earl Hines And His Orchestra — 1941 (1992)

  • Genre: Music, Jazz, FLAC / APE
  • Formats: MP3 FLAC WMA HD APE
  • Album Size: 1384 mb.
  • Archive: ZIP RAR
Artist: Earl Hines And His Orchestra
Title Of Album: 1941
Year Of Release: 1992
Label: Classics Records
Genre: Big Band, Swing, Stride
Quality: FLAC (tracks+.cue) + log
Bitrate: Lossless
Total Time: 61:07
Total Size: 261 Mb
Earl Kenneth Hines, universally known as Earl "Fatha"[1] Hines, (December 28, 1903[2] – April 22, 1983) was "one of a small number of pianists whose playing shaped the history of jazz".
Tracklist:
01. Up Jumped The Devil (2:48)
02. Sally, Won't You Come Back? (2:46)
03. Jersey Bounce (3:04)
04. Julia (3:05)
05. South Side (2:51)
06. On The Sunny Side Of The Street (2:33)
07. My Melancholy Baby (2:31)
08. It Had To Be You (2:43)
09. Windy City Jive (2:51)
10. Straight To Love (3:08)
11. Water Boy (3:08)
12. Swingin' On C (3:08)
13. Yellow Fire (3:02)
14. Somehow (2:57)
15. I Got It Bad And That Ain't Good (2:57)
16. I Never Dreamt (2:56)
17. The Father Jumps (2:33)
18. The Boy With The Wistful Eyes (3:08)
19. The Jitney Man (2:51)
20. The Earl (2:45)
21. You Don't Know What Love Is (3:22)
Exact Audio Copy V0.99 prebeta 5 from 4. May 2009
EAC extraction logfile from 28. June 2011, 19:56
Earl Hines & His Orchestra / 1941
Used drive : Optiarc DVD RW AD-7260S Adapter: 3 ID: 0
Read mode : Secure
Utilize accurate stream : Yes
Defeat audio cache : Yes
Make use of C2 pointers : No
Read offset correction : 48
Overread into Lead-In and Lead-Out : No
Fill up missing offset samples with silence : Yes
Delete leading and trailing silent blocks : No
Null samples used in CRC calculations : Yes
Used interface : Native Win32 interface for Win NT & 2000
Gap handling : Appended to previous track
Used output format : User Defined Encoder
Selected bitrate : 320 kBit/s
Quality : High
Add ID3 tag : No
Command line compressor : C:Program Files (x86)FLACflac.exe
Additional command line options : -V -8 -T "artist=%a" -T "title=%t" -T "album=%g" -T "date=%y" -T "tracknumber=%n" -T "genre=%m" %s
TOC of the extracted CD
Track | Start | Length | Start sector | End sector
---------------------------------------------------------
1 | 0:00.33 | 2:47.62 | 33 | 12619
2 | 2:48.20 | 2:46.10 | 12620 | 25079
3 | 5:34.30 | 3:03.68 | 25080 | 38872
4 | 8:38.23 | 3:04.40 | 38873 | 52712
5 | 11:42.63 | 2:50.45 | 52713 | 65507
6 | 14:33.33 | 2:32.60 | 65508 | 76967
7 | 17:06.18 | 2:31.22 | 76968 | 88314
8 | 19:37.40 | 2:42.68 | 88315 | 100532
9 | 22:20.33 | 2:51.17 | 100533 | 113374
10 | 25:11.50 | 3:07.38 | 113375 | 127437
11 | 28:19.13 | 3:07.65 | 127438 | 141527
12 | 31:27.03 | 3:07.65 | 141528 | 155617
13 | 34:34.68 | 3:02.20 | 155618 | 169287
14 | 37:37.13 | 2:56.57 | 169288 | 182544
15 | 40:33.70 | 2:56.53 | 182545 | 195797
16 | 43:30.48 | 2:56.30 | 195798 | 209027
17 | 46:27.03 | 2:33.32 | 209028 | 220534
18 | 49:00.35 | 3:08.28 | 220535 | 234662
19 | 52:08.63 | 2:51.15 | 234663 | 247502
20 | 55:00.03 | 2:45.30 | 247503 | 259907
21 | 57:45.33 | 3:22.00 | 259908 | 275057
Track 1
Filename E:Rips1 - Up Jumped The Devil.wav
Pre-gap length 0:00:02.44
Peak level 62.5 %
Track quality 100.0 %
Test CRC E4394D51
Copy CRC E4394D51
Accurately ripped (confidence 2) [C0A53FB7]
Copy OK
Track 2
Filename E:Rips2 - Sally, Won't You Come Back .wav
Pre-gap length 0:00:01.56
Peak level 62.8 %
Track quality 100.0 %
Test CRC 7ADEF5A1
Copy CRC 7ADEF5A1
Accurately ripped (confidence 2) [2BD73B53]
Copy OK
Track 3
Filename E:Rips3 - Jersey Bounce.wav
Pre-gap length 0:00:02.06
Peak level 78.0 %
Track quality 100.0 %
Test CRC FEF1A9A5
Copy CRC FEF1A9A5
Accurately ripped (confidence 2) [F65B1147]
Copy OK
Track 4
Filename E:Rips4 - Julia.wav
Pre-gap length 0:00:01.97
Peak level 81.5 %
Track quality 100.0 %
Test CRC 54402DA1
Copy CRC 54402DA1
Accurately ripped (confidence 2) [46BA8CC3]
Copy OK
Track 5
Filename E:Rips5 - South Side.wav
Pre-gap length 0:00:01.90
Peak level 79.5 %
Track quality 100.0 %
Test CRC 51B2E84E
Copy CRC 51B2E84E
Accurately ripped (confidence 2) [99C0C1FE]
Copy OK
Track 6
Filename E:Rips6 - On The Sunny Side Of The Street.wav
Pre-gap length 0:00:01.30
Peak level 57.8 %
Track quality 100.0 %
Test CRC 8EF0ADD3
Copy CRC 8EF0ADD3
Accurately ripped (confidence 2) [0E1CA9CF]
Copy OK
Track 7
Filename E:Rips7 - My Melancholy Baby.wav
Pre-gap length 0:00:01.44
Peak level 64.0 %
Track quality 100.0 %
Test CRC 78842B80
Copy CRC 78842B80
Accurately ripped (confidence 2) [021CC55F]
Copy OK
Track 8
Filename E:Rips8 - It Had To Be You.wav
Pre-gap length 0:00:01.56
Peak level 78.7 %
Track quality 100.0 %
Test CRC 0B7A2487
Copy CRC 0B7A2487
Accurately ripped (confidence 2) [A62D0D29]
Copy OK
Track 9
Filename E:Rips9 - Windy City Jive.wav
Pre-gap length 0:00:01.70
Peak level 61.4 %
Track quality 100.0 %
Test CRC F892718B
Copy CRC F892718B
Accurately ripped (confidence 2) [167E8F00]
Copy OK
Track 10
Filename E:Rips10 - Straight To Love.wav
Pre-gap length 0:00:01.62
Peak level 56.3 %
Track quality 100.0 %
Test CRC 6EE127E3
Copy CRC 6EE127E3
Accurately ripped (confidence 2) [A0F45BEB]
Copy OK
Track 11
Filename E:Rips11 - Water Boy.wav
Pre-gap length 0:00:01.44
Peak level 53.2 %
Track quality 100.0 %
Test CRC 46E92B49
Copy CRC 46E92B49
Accurately ripped (confidence 2) [5C894E40]
Copy OK
Track 12
Filename E:Rips12 - Swingin' On C.wav
Pre-gap length 0:00:01.57
Peak level 56.0 %
Track quality 100.0 %
Test CRC BA78C2DE
Copy CRC BA78C2DE
Accurately ripped (confidence 2) [528B4B69]
Copy OK
Track 13
Filename E:Rips13 - Yellow Fire.wav
Pre-gap length 0:00:01.90
Peak level 63.1 %
Track quality 99.9 %
Test CRC 34E4257F
Copy CRC 34E4257F
Accurately ripped (confidence 2) [516515F2]
Copy OK
Track 14
Filename E:Rips14 - Somehow.wav
Pre-gap length 0:00:01.77
Peak level 56.7 %
Track quality 100.0 %
Test CRC 17CA8977
Copy CRC 17CA8977
Accurately ripped (confidence 2) [AC69AC1D]
Copy OK
Track 15
Filename E:Rips15 - I Got It Bad And That Ain't Good.wav
Pre-gap length 0:00:01.46
Peak level 53.8 %
Track quality 100.0 %
Test CRC C42DE0F0
Copy CRC C42DE0F0
Accurately ripped (confidence 2) [96624FAF]
Copy OK
Track 16
Filename E:Rips16 - I Never Dreamt.wav
Pre-gap length 0:00:01.57
Peak level 79.7 %
Track quality 100.0 %
Test CRC 7FD53B63
Copy CRC 7FD53B63
Accurately ripped (confidence 2) [2438D43D]
Copy OK
Track 17
Filename E:Rips17 - The Father Jumps.wav
Pre-gap length 0:00:01.90
Peak level 67.6 %
Track quality 99.9 %
Test CRC E72B30C7
Copy CRC E72B30C7
Accurately ripped (confidence 2) [E30FE5D3]
Copy OK
Track 18
Filename E:Rips18 - The Boy With The Wistful Eyes.wav
Pre-gap length 0:00:01.60
Peak level 48.9 %
Track quality 100.0 %
Test CRC 75087BCB
Copy CRC 75087BCB
Accurately ripped (confidence 2) [7E57B164]
Copy OK
Track 19
Filename E:Rips19 - The Jitney Man.wav
Pre-gap length 0:00:01.70
Peak level 48.8 %
Track quality 100.0 %
Test CRC 6226899C
Copy CRC 6226899C
Accurately ripped (confidence 2) [C9BDE08E]
Copy OK
Track 20
Filename E:Rips20 - The Earl.wav
Pre-gap length 0:00:01.66
Peak level 50.7 %
Track quality 100.0 %
Test CRC 84710D97
Copy CRC 84710D97
Track not present in AccurateRip database
Copy OK
Track 21
Filename E:Rips21 - You Don't Know What Love Is.wav
Pre-gap length 0:00:01.37
Peak level 45.4 %
Track quality 100.0 %
Test CRC 46080E82
Copy CRC 46080E82
Accurately ripped (confidence 2) [3E904AED]
Copy OK
20 track(s) accurately ripped
1 track(s) not present in the AccurateRip database
Some tracks could not be verified as accurate
No errors occurred
End of status report
FileSonic
Wupload



Alternative download links

DOWNLOAD

Related MP3 FLAC to Earl Hines And His Orchestra — 1941 (1992)
Feedback
All rights reserved.
WEBBG.com © 2000-2018