Konchordat - English Ghosts (2009)
MP3 FLAC WMA APE HD

Konchordat - English Ghosts (2009)

Artist: Konchordat
Title Of Album: English Ghosts
Year Of Release: 2009
Label: Konchordat Music
Genre: Neo-Prog, Sympho prog
Quality: FLAC (image+.cue) + log
Bitrate: Lossless
Total Time: 62:36
Total Size: 384 Mb
Founded in 2008 KONCHORDAT are a new project on the scene. Together with Stuart Martin (guitars, vocals) multi-instrumentalists Lee Harding and Steve Cork have brought together this new project in Kent/UK. The band are acting on the neo and symph border where they offer gentle mid-tempo songs provided with a high weighting on compact arrangements. While often building an orchestral strings similar background, the keyboards are predominantly responsible for the symphonic edge.
Tracklist:
1. Prelude (1:12)
2. The Human Element (5:42)
3. Consequences (11:16)
4. No Words (6:00)
5. English Ghosts (19:39)
6. Motion (7:44)
7. The Road Goes Ever On (6:28)
8. Coda (4:35)
Exact Audio Copy V1.0 beta 1 from 15. November 2010
EAC extraction logfile from 27. August 2011, 9:03
Konchordat / English Ghosts
Used drive : hp CDDVDW TS-L633M Adapter: 1 ID: 0
Read mode : Secure
Utilize accurate stream : Yes
Defeat audio cache : Yes
Make use of C2 pointers : No
Read offset correction : 6
Overread into Lead-In and Lead-Out : No
Fill up missing offset samples with silence : Yes
Delete leading and trailing silent blocks : No
Null samples used in CRC calculations : Yes
Used interface : Native Win32 interface for Win NT & 2000
Used output format : User Defined Encoder
Selected bitrate : 1024 kBit/s
Quality : High
Add ID3 tag : No
Command line compressor : C:Program Files (x86)FLACflac.exe
Additional command line options : -6 -V -T "ARTIST=%a" -T "TITLE=%t" -T "ALBUM=%g" -T "DATE=%y" -T "TRACKNUMBER=%n" -T "GENRE=%m" -T "COMMENT=%e" %s -o %d
TOC of the extracted CD
Track | Start | Length | Start sector | End sector
---------------------------------------------------------
1 | 0:00.00 | 1:11.19 | 0 | 5343
2 | 1:11.19 | 5:42.45 | 5344 | 31038
3 | 6:53.64 | 11:15.67 | 31039 | 81730
4 | 18:09.56 | 5:59.27 | 81731 | 108682
5 | 24:09.08 | 19:39.53 | 108683 | 197160
6 | 43:48.61 | 7:43.54 | 197161 | 231939
7 | 51:32.40 | 6:30.29 | 231940 | 261218
8 | 58:02.69 | 4:33.71 | 261219 | 281764
Range status and errors
Selected range
Filename C:UsersAlexander ZaitsevDesktopflacKonchordat - English Ghosts.wav
Peak level 98.7 %
Extraction speed 0.3 X
Range quality 100.0 %
Copy CRC 7949268D
Copy OK
No errors occurred
AccurateRip summary
Track 1 not present in database
Track 2 not present in database
Track 3 not present in database
Track 4 not present in database
Track 5 not present in database
Track 6 not present in database
Track 7 not present in database
Track 8 not present in database
None of the tracks are present in the AccurateRip database
End of status report
FileSonic
Wupload



Alternative download links

DOWNLOAD

Related MP3 FLAC to Konchordat - English Ghosts (2009)
Feedback
All rights reserved.
WEBBG.com © 2000-2018