Curtis Fuller - Blues-Ette (1991)
MP3 FLAC WMA APE HD

Curtis Fuller - Blues-Ette (1991)

  • Genre: Music, Jazz, FLAC / APE
  • Formats: MP3 FLAC WMA HD APE
  • Album Size: 1537 mb.
  • Archive: ZIP RAR
Artist: Curtis Fuller
Title Of Album: Blues-Ette
Year Of Release: 1991
Label: Savoy
Genre: Jazz
Quality: FLAC (Tracks,cue,log,scans)|MP3
Bitrate: lossless | 320kbps
Total Time: 36:15 min
Total Size: 256 mb/107 mb
TRACKLIST
1 Five Spot After Dark
2 Undecided
3 Blues-ette
4 Minor Vamp
5 Love Your Spell Is Everywhere
6 Twelve-Inch
Personnel: Curtis Fuller (trombone); Benny Golson (tenor saxophone); Tommy Flanagan (piano); Jimmy Garrison (bass); Al Harewood (drums)
Recorded on May 21, 1959. Originally released on Stereophonic . Includes liner notes by H. Alan Stein.
By its very nature, the slide trombone is difficult instrument to play, and it takes great technical facility to master this horn. Curtis Fuller, one of the few great jazz trombonists, earned his reputation by being able to belt out fast bebop lines almost as readily as a saxophonist, in a clean, expressive tone. Conversely, Fuller can play in a melodic and understated way too, making him a well-rounded soloist.
A testament to these skills, Fuller's 1959 release BLUES-ETTE is light on its feet. In fact, each exciting-yet-delicate song serves as a wonderful springboard for lively solos by Fuller, tenor saxophonist Benny Golson, and pianist Tommy Flanagan. The jaunty "Five Spot After Dark" and the gently swinging "Love Your Spell Is Everywhere" are the highlights. In addition to offering up nimble horn and piano solos, the record is enhanced by the buoyant drumming of Al Harewood and the subtle work of bassist Jimmy Garrison. Indeed, BLUES-ETTE is fluid and graceful throughout.
Exact Audio Copy V0.99 prebeta 4 from 23. January 2008
EAC extraction logfile from 11. August 2009, 10:59
Curtis Fuller / Blues-Ette
Used drive : Optiarc DVD RW AD-7173A Adapter: 1 ID: 0
Read mode : Secure
Utilize accurate stream : Yes
Defeat audio cache : Yes
Make use of C2 pointers : No
Read offset correction : 48
Overread into Lead-In and Lead-Out : No
Fill up missing offset samples with silence : Yes
Delete leading and trailing silent blocks : No
Null samples used in CRC calculations : No
Used interface : Native Win32 interface for Win NT & 2000
Used output format : Internal WAV Routines
Sample format : 44.100 Hz; 16 Bit; Stereo
TOC of the extracted CD
Track | Start | Length | Start sector | End sector
---------------------------------------------------------
1 | 0:00.00 | 5:20.37 | 0 | 24036
2 | 5:20.37 | 7:12.23 | 24037 | 56459
3 | 12:32.60 | 5:34.05 | 56460 | 81514
4 | 18:06.65 | 5:13.47 | 81515 | 105036
5 | 23:20.37 | 7:09.73 | 105037 | 137284
6 | 30:30.35 | 6:27.72 | 137285 | 166381
Range status and errors
Selected range
Filename G:Curtis Fuller - Blues-Ette Curtis Fuller - Blues-Ette.wav
Peak level 100.0 %
Range quality 100.0 %
Copy CRC 537DE2F9
Copy OK
No errors occurred

AccurateRip summary

Track 1 cannot be verified as accurate (confidence 1) [1B41C405], AccurateRip returned [17FBA1C0]
Track 2 cannot be verified as accurate (confidence 1) [F1BA3885], AccurateRip returned [4DD4FA33]
Track 3 cannot be verified as accurate (confidence 1) [1F0C975B], AccurateRip returned [48ECB3D7]
Track 4 cannot be verified as accurate (confidence 1) [DFAA9530], AccurateRip returned [40C46B2A]
Track 5 cannot be verified as accurate (confidence 1) [EF3CF632], AccurateRip returned [F0E3DCD6]
Track 6 cannot be verified as accurate (confidence 1) [8D81D19A], AccurateRip returned [1F068FCB]

No tracks could be verified as accurate
You may have a different pressing from the one(s) in the database
End of status report
AUDIOCHECKER v2.0 beta (build 457) - by Dester - [email protected]
~~~~~~~~~~~~~~~~~~~~~~~~~~~~~~~~~~
-=== DO NOT EDIT THIS FILE! ===-
Path: ...Curtis Fuller - Blues-Ette {Savoy}
01 -=- 01 - Five Spot After Dark.flac -=- CDDA (100%)
02 -=- 02 - Undecided.flac -=- CDDA (100%)
03 -=- 03 - Blues-Ette.flac -=- CDDA (100%)
04 -=- 04 - Minor Vamp.flac -=- CDDA (100%)
05 -=- 05 - Love Your Spell is Everywhere.flac -=- CDDA (100%)
06 -=- 06 - Twelve-Inch.flac -=- CDDA (100%)
Summary 100,00% CDDA
213863636
DOWNLOAD LOSSLESS:
DOWNLOAD MP3:




Alternative download links

BitShare BitShare

Related MP3 FLAC to Curtis Fuller - Blues-Ette (1991)
Feedback
All rights reserved.
WEBBG.com © 2000-2018