Kenny - The Best Of Kenny (1994)
MP3 FLAC WMA APE HD

Kenny - The Best Of Kenny (1994)

Artist: Kenny
Title Of Album: The Best Of Kenny
Year Of Release: 1994
Label: Repertoire Records
Genre: glam rock
Quality: FLAC (image+.cue) + log
Bitrate: Lossless
Total Time: 1:01:22
Total Size: 474 Mb
«Kenny» - The Best Of Kenny’ s album. It closely resembles the Sweet, Mud, Rubbets. The album will interest fans of classic glam.
Tracklist:
01. Heart Of Stone [0:02:57.03]
02. Give It To Me Now [0:02:47.37]
03. The Bump [0:02:34.27]
04. Fancy Pants [0:03:26.69]
05. Baby, I Love You, Ok [0:03:49.23]
06. Julie Anne [0:02:59.58]
07. Nice To Have You Home [0:03:43.42]
08. Hot Lips [0:02:55.69]
09. Red Headed Lady [0:02:37.25]
10. I WonґT Cry [0:04:04.44]
11. You Wrote The Words [0:02:49.46]
12. Iґm Coming Home [0:02:59.66]
13. Go Into Hiding [0:03:09.59]
14. End Of A Love Affair [0:03:04.13]
15. Be My Girl [0:02:16.64]
16. Make Up, Break Up [0:03:07.65]
17. Alone Together [0:03:15.71]
18. (Your Love Has Lifted Me) Higher And Higher [0:04:26.74]
19. Cryinґ [0:02:31.54]
20. Abes Lament [0:01:43.25]
Exact Audio Copy V1.0 beta 1 from 15. November 2010
EAC extraction logfile from 30. June 2011, 17:21
Kenny / The Best Of
Used drive : ATAPI iHAP122 W Adapter: 1 ID: 0
Read mode : Secure
Utilize accurate stream : Yes
Defeat audio cache : Yes
Make use of C2 pointers : No
Read offset correction : 24
Overread into Lead-In and Lead-Out : Yes
Fill up missing offset samples with silence : Yes
Delete leading and trailing silent blocks : No
Null samples used in CRC calculations : Yes
Used interface : Native Win32 interface for Win NT & 2000
Used output format : Internal WAV Routines
Sample format : 44.100 Hz; 16 Bit; Stereo
TOC of the extracted CD
Track | Start | Length | Start sector | End sector
---------------------------------------------------------
1 | 0:00.00 | 2:57.03 | 0 | 13277
2 | 2:57.03 | 2:47.37 | 13278 | 25839
3 | 5:44.40 | 2:34.27 | 25840 | 37416
4 | 8:18.67 | 3:26.69 | 37417 | 52935
5 | 11:45.61 | 3:49.23 | 52936 | 70133
6 | 15:35.09 | 2:59.58 | 70134 | 83616
7 | 18:34.67 | 3:43.42 | 83617 | 100383
8 | 22:18.34 | 2:55.69 | 100384 | 113577
9 | 25:14.28 | 2:37.25 | 113578 | 125377
10 | 27:51.53 | 4:04.44 | 125378 | 143721
11 | 31:56.22 | 2:49.46 | 143722 | 156442
12 | 34:45.68 | 2:59.66 | 156443 | 169933
13 | 37:45.59 | 3:09.59 | 169934 | 184167
14 | 40:55.43 | 3:04.13 | 184168 | 197980
15 | 43:59.56 | 2:16.64 | 197981 | 208244
16 | 46:16.45 | 3:07.65 | 208245 | 222334
17 | 49:24.35 | 3:15.71 | 222335 | 237030
18 | 52:40.31 | 4:26.74 | 237031 | 257054
19 | 57:07.30 | 2:31.54 | 257055 | 268433
20 | 59:39.09 | 1:43.25 | 268434 | 276183
Range status and errors
Selected range
Filename C:MusicBoxKenny - The Best Of.wav
Peak level 100.0 %
Extraction speed 0.2 X
Range quality 100.0 %
Copy CRC 8DCD8979
Copy OK
No errors occurred
AccurateRip summary
Track 1 cannot be verified as accurate (confidence 1) [140C1438], AccurateRip returned [1C0C6BA0]
Track 2 cannot be verified as accurate (confidence 1) [10D4E92C], AccurateRip returned [5DA746EA]
Track 3 cannot be verified as accurate (confidence 1) [FC4C7025], AccurateRip returned [76645479]
Track 4 cannot be verified as accurate (confidence 1) [07507D14], AccurateRip returned [31752DD8]
Track 5 cannot be verified as accurate (confidence 1) [E834F16A], AccurateRip returned [5102F2F6]
Track 6 cannot be verified as accurate (confidence 1) [18D3133E], AccurateRip returned [9BDF32C8]
Track 7 cannot be verified as accurate (confidence 1) [5A234B90], AccurateRip returned [C93CD7BC]
Track 8 cannot be verified as accurate (confidence 1) [3AB8C77D], AccurateRip returned [3FA0AC2D]
Track 9 cannot be verified as accurate (confidence 1) [6D00D469], AccurateRip returned [F3FF0043]
Track 10 cannot be verified as accurate (confidence 1) [5BD00982], AccurateRip returned [20BE7F42]
Track 11 cannot be verified as accurate (confidence 1) [7F3D7F64], AccurateRip returned [0D04A520]
Track 12 cannot be verified as accurate (confidence 1) [BA0863C9], AccurateRip returned [2D1F0739]
Track 13 cannot be verified as accurate (confidence 1) [3CFFB16B], AccurateRip returned [5302500B]
Track 14 cannot be verified as accurate (confidence 1) [12B26DD9], AccurateRip returned [D333FCA9]
Track 15 cannot be verified as accurate (confidence 1) [A69EC2FF], AccurateRip returned [F9726D43]
Track 16 cannot be verified as accurate (confidence 1) [6338B87C], AccurateRip returned [C50BD36C]
Track 17 cannot be verified as accurate (confidence 1) [272BF37C], AccurateRip returned [55F0C39C]
Track 18 cannot be verified as accurate (confidence 1) [6C3B9DA0], AccurateRip returned [B5834EA2]
Track 19 cannot be verified as accurate (confidence 1) [BEE047CD], AccurateRip returned [A91B799F]
Track 20 cannot be verified as accurate (confidence 1) [F4076EEF], AccurateRip returned [7320F38F]
No tracks could be verified as accurate
You may have a different pressing from the one(s) in the database
End of status report
FileSonic
Wupload



Alternative download links

DOWNLOAD

Related MP3 FLAC to Kenny - The Best Of Kenny (1994)
Feedback
All rights reserved.
WEBBG.com © 2000-2018