David Mark Pearce - Strange Ang3ls (2011)
MP3 FLAC WMA APE HD

David Mark Pearce - Strange Ang3ls (2011)

Artist: David Mark Pearce
Title Of Album: Strange Ang3ls
Year Of Release: 2011
Label: AOR Heaven
Genre: Melodic Hard Rock
Quality: APE (image+.cue) + log
Bitrate: Lossless
Total Time: 49:18
Total Size: 343 Mb
David Mark Pearce (born May 23, 1972) is a British guitarist, songwriter, sound engineer and record producer.
Tracklist:
01. Ang3ls (Help Us)
02. Alone I Cry
03. Shelter Me From The Rain
04. Tell Me Why
05. EveryTime It Rains (Instrumental)
06. StrangeAng3ls
07. To Live Again
08. Save Your Prayers
09. Eden Is Burning
10. So Far From Heaven
Exact Audio Copy V0.99 prebeta 5 from 4. May 2009
EAC extraction logfile from 10. July 2011, 6:51
David Mark Pearce / Strange Ang3ls
Used drive : TSSTcorpCDDVDW SH-S223C Adapter: 1 ID: 1
Read mode : Secure
Utilize accurate stream : Yes
Defeat audio cache : Yes
Make use of C2 pointers : No
Read offset correction : 697
Overread into Lead-In and Lead-Out : No
Fill up missing offset samples with silence : Yes
Delete leading and trailing silent blocks : No
Null samples used in CRC calculations : Yes
Used interface : Installed external ASPI interface
Used output format : Internal WAV Routines
Sample format : 44.100 Hz; 16 Bit; Stereo
TOC of the extracted CD
Track | Start | Length | Start sector | End sector
---------------------------------------------------------
1 | 0:00.00 | 0:44.21 | 0 | 3320
2 | 0:44.21 | 4:48.25 | 3321 | 24945
3 | 5:32.46 | 3:32.09 | 24946 | 40854
4 | 9:04.55 | 6:27.59 | 40855 | 69938
5 | 15:32.39 | 6:57.39 | 69939 | 101252
6 | 22:30.03 | 5:32.69 | 101253 | 126221
7 | 28:02.72 | 5:17.31 | 126222 | 150027
8 | 33:20.28 | 6:36.15 | 150028 | 179742
9 | 39:56.43 | 4:52.27 | 179743 | 201669
10 | 44:48.70 | 4:29.12 | 201670 | 221856
Range status and errors
Selected range
Filename E:David Mark Pearce - Strange Ang3ls Strange Ang3ls.wav
Peak level 99.7 %
Range quality 100.0 %
Copy CRC A884887D
Copy OK
No errors occurred
End of status report
FileSonic
Wupload



Alternative download links

DOWNLOAD

Related MP3 FLAC to David Mark Pearce - Strange Ang3ls (2011)
Feedback
All rights reserved.
WEBBG.com © 2000-2018