Contraluz - Novus Orbis (2011)
MP3 FLAC WMA APE HD

Contraluz - Novus Orbis (2011)

Artist: Contraluz
Title Of Album: Novus Orbis
Year Of Release: 2011
Label: DIY
Genre: Prog Folk
Quality: FLAC (image+.cue) + log
Bitrate: Lossless
Total Time: 71:47
Total Size: 469 Mb
CONTRALUZ was born as a rock group at the end of the '60. In their first stage (Carlos Barrio in guitar, Néstor Barrio in drums, Freddy Prochnik in bass and Alejndro Barzi in flute and voice) their style can be seen, with certain influence of the English group JETHRO TULL. But at the beginning of the '70 they started to show a more personal style, marked by their search of fusion of rock with national musical roots, incorporating folklore rhythm. The carnavalito and other autochthonous sounds appear once and again in the creations of the group.
Tracklist:
01. La Manopillación (6:48)
02. Cajita de Música (10:22)
03. Lléname de sol (6:06)
04. Trexón (7:37)
05. El Mía Mespués (7:02)
06. Oídos en el Mlma (8:26)
07. Decime Mapá por Mué (8:00)
08. Hijos de América (10:29)
09. Vamos Molviendo a Masa (6:57)
Exact Audio Copy V0.99 prebeta 4 from 23. January 2008
EAC extraction logfile from 5. March 2011, 10:03
Contraluz / Novus orbis
Used drive : HL-DT-STDVDRAM GH20NS15 Adapter: 1 ID: 0
Read mode : Secure
Utilize accurate stream : Yes
Defeat audio cache : Yes
Make use of C2 pointers : No
Read offset correction : 102
Overread into Lead-In and Lead-Out : No
Fill up missing offset samples with silence : Yes
Delete leading and trailing silent blocks : No
Null samples used in CRC calculations : Yes
Used interface : Native Win32 interface for Win NT & 2000
Used output format : Internal WAV Routines
Sample format : 44.100 Hz; 16 Bit; Stereo
TOC of the extracted CD
Track | Start | Length | Start sector | End sector
---------------------------------------------------------
1 | 0:00.00 | 6:48.18 | 0 | 30617
2 | 6:48.18 | 10:22.45 | 30618 | 77312
3 | 17:10.63 | 6:06.43 | 77313 | 104805
4 | 23:17.31 | 7:37.35 | 104806 | 139115
5 | 30:54.66 | 7:02.47 | 139116 | 170812
6 | 37:57.38 | 8:26.58 | 170813 | 208820
7 | 46:24.21 | 8:00.70 | 208821 | 244890
8 | 54:25.16 | 10:29.14 | 244891 | 292079
9 | 64:54.30 | 6:57.02 | 292080 | 323356
Range status and errors
Selected range
Filename D:Mis documentosDownloadContraluz - Novus orbisContraluz - Novus orbis.wav
Peak level 100.0 %
Range quality 100.0 %
Copy CRC 57E9F0B6
Copy OK
No errors occurred
End of status report
FileSonic
Wupload



Alternative download links

DOWNLOAD

Related MP3 FLAC to Contraluz - Novus Orbis (2011)
Feedback
All rights reserved.
WEBBG.com © 2000-2018