Buddha Lounge - Renditions Of Metallica The Black Lounge
MP3 FLAC WMA APE HD

Buddha Lounge - Renditions Of Metallica The Black Lounge

Artist: Buddha Lounge
Title Of Album: Buddha Lounge - Renditions Of Metallica The Black Lounge
Year Of Release: June 19, 2007
Label: Big Eye Music
Genre: Lounge, New Age, Meditative
Quality: FLAC
Bitrate: lossless image+CUE +LOG +SCANS
Total Size: 400,52 Mb
I've read some bad reviews about this cd and I think is time to say something about it. Firstly I have to say that I've been a Metallica fan for almost 20 years and I collect every single tribute to them that I can find, so I have a lot of Metallica tributes in my personal collection and this is one of the best. Why? Well, not only the music is very well done but it is also a fresh approach to the beautiful melodies that Metallica offer with their sound. I mean, who need's a tribute were the music is played exactly as the originals? The "Buddha Lounge - Renditions of Metallica" cd is a compilation of some of Metallica's best songs reinterpreted with oriental instruments, wich brings to light the awesome composition of the original songs and their musicality. Of course that if you're a die-hard fan who only listens to thrash metal, you will not like this, but if you are an open minded person, who can taste different musical flavours, go ahead and purchase the cd. Plus, the price is a bargain!
Tracklist:
1. The Four Horsemen
2. For Whom The Bell Tolls
3. The Thing That Should Not Be
4. Fade To Black
5. One
6. Enter Sandman
7. The Unforgiven
8. Nothing Else Matters
9. Until It Sleeps
10. Mama Said
11. St. Anger
Exact Audio Copy V0.99 prebeta 4 from 23. January 2008
EAC extraction logfile from 28. September 2008, 16:15
Buddha Lounge / Renditions Of Metallica The Black Lounge
Used drive : Optiarc DVD RW AD-7203S Adapter: 2 ID: 0
Read mode : Secure
Utilize accurate stream : Yes
Defeat audio cache : Yes
Make use of C2 pointers : No
Read offset correction : 48
Overread into Lead-In and Lead-Out : No
Fill up missing offset samples with silence : Yes
Delete leading and trailing silent blocks : No
Null samples used in CRC calculations : Yes
Used interface : Native Win32 interface for Win NT & 2000
Used output format : Internal WAV Routines
Sample format : 44.100 Hz; 16 Bit; Stereo
TOC of the extracted CD
Track | Start | Length | Start sector | End sector
---------------------------------------------------------
1 | 0:00.00 | 6:02.00 | 0 | 27149
2 | 6:02.00 | 4:47.61 | 27150 | 48735
3 | 10:49.61 | 6:29.61 | 48736 | 77971
4 | 17:19.47 | 6:11.61 | 77972 | 105857
5 | 23:31.33 | 6:15.15 | 105858 | 133997
6 | 29:46.48 | 5:30.27 | 133998 | 158774
7 | 35:17.00 | 6:03.53 | 158775 | 186052
8 | 41:20.53 | 6:09.13 | 186053 | 213740
9 | 47:29.66 | 4:51.06 | 213741 | 235571
10 | 52:20.72 | 4:38.00 | 235572 | 256421
11 | 56:58.72 | 6:32.23 | 256422 | 285844
Range status and errors
Selected range
Filename C:Documents and SettingsTAMAnРабочий столBuddha Lounge - Renditions Of Metallica The Black Lounge.wav
Peak level 100.0 %
Range quality 100.0 %
Copy CRC B323C890
Copy OK
No errors occurred
End of status report
Download Buddha Lounge - Renditions Of Metallica The Black Lounge :
turbobit.net:
hotfile.com
" Sale Accounts by Rapidshare.com for 5 WMZ. Write in PM "
Rapidshare.com:
Pass: israbox.download
Thanks to the original Publicist "taman"



Alternative download links



Related MP3 FLAC to Buddha Lounge - Renditions Of Metallica The Black Lounge
Feedback
All rights reserved.
WEBBG.com © 2000-2018