Oopiibs - One Dream Audiophile (2010)
MP3 FLAC WMA APE HD

Oopiibs - One Dream Audiophile (2010)

Artist: Oopiibs
Title Of Album: One Dream {Audiophile}
Year Of Release: 2010
Label: Bai-Cha Song
Genre: Vocal Jazz
Quality: FLAC (image+.cue) + log
Bitrate: Lossless
Total Time: 47:14
Total Size: 529 Mb
Vocal jazz from Thailand.
Tracklist:
01. Untamed Heart [0:04:22.68]
02. No Smoking Please [0:04:04.31]
03. Interlude... [0:00:29.32]
04. If Tomrrow Never Comes [0:04:23.45]
05. Re-cycle [0:04:12.58]
06. Drawing [0:04:09.49]
07. The One [0:04:32.25]
08. Tina's Song [0:04:28.21]
09. Ask Mum [0:03:30.34]
10. Temporary Person [0:04:37.16]
11. I Will Remain [0:04:25.35]
12. Piano Mood [0:03:57.47]
Exact Audio Copy V0.99 prebeta 5 from 4. May 2009
EAC extraction logfile from 9. December 2010, 14:14
Oopiibs / One Dream
Used drive : PIONEER DVD-RW DVR-118L Adapter: 4 ID: 0
Read mode : Secure
Utilize accurate stream : Yes
Defeat audio cache : Yes
Make use of C2 pointers : No
Read offset correction : 6
Overread into Lead-In and Lead-Out : No
Fill up missing offset samples with silence : Yes
Delete leading and trailing silent blocks : No
Null samples used in CRC calculations : Yes
Used interface : Native Win32 interface for Win NT & 2000
Used output format : Internal WAV Routines
Sample format : 44.100 Hz; 16 Bit; Stereo
TOC of the extracted CD
Track | Start | Length | Start sector | End sector
---------------------------------------------------------
1 | 0:00.00 | 4:22.68 | 0 | 19717
2 | 4:22.68 | 4:04.31 | 19718 | 38048
3 | 8:27.24 | 0:29.32 | 38049 | 40255
4 | 8:56.56 | 4:23.45 | 40256 | 60025
5 | 13:20.26 | 4:12.58 | 60026 | 78983
6 | 17:33.09 | 4:09.49 | 78984 | 97707
7 | 21:42.58 | 4:32.25 | 97708 | 118132
8 | 26:15.08 | 4:28.21 | 118133 | 138253
9 | 30:43.29 | 3:30.34 | 138254 | 154037
10 | 34:13.63 | 4:37.16 | 154038 | 174828
11 | 38:51.04 | 4:25.35 | 174829 | 194738
12 | 43:16.39 | 3:57.47 | 194739 | 212560
Range status and errors
Selected range
Filename E:Audio Creator Music LibraryOopiibs - One Dream.wav
Peak level 100.0 %
Range quality 99.9 %
Copy CRC 57B0FFE9
Copy OK
No errors occurred
AccurateRip summary
Track 1 not present in database
Track 2 not present in database
Track 3 not present in database
Track 4 not present in database
Track 5 not present in database
Track 6 not present in database
Track 7 not present in database
Track 8 not present in database
Track 9 not present in database
Track 10 not present in database
Track 11 not present in database
Track 12 not present in database
None of the tracks are present in the AccurateRip database
End of status report
FileSonic
Turbobit



Alternative download links

DOWNLOAD

Related MP3 FLAC to Oopiibs - One Dream Audiophile (2010)
Feedback
All rights reserved.
WEBBG.com © 2000-2018