Terminal-3 - Soul Comfort (2003)
MP3 FLAC WMA APE HD

Terminal-3 - Soul Comfort (2003)

Artist: Terminal-3
Title Of Album: Soul Comfort
Year Of Release: 2003-12-11
Label: RedCola records
Genre: Downtempo, Downbeat
Quality: Flac(Image+Cue+Log+Covers)/mp3
Bitrate: Lossless/320kbps
Total Time: 43:38 min
Total Size: 258Mb/100Mb
Tracklist:
01. Dinner in Coach
02. Just Relax
03. The Pyramid Brigade
04. Olivier
05. Slowdive
06. Almond Joy
07. 3 O'Clock Shadow
08. Flight 187
09. Fly by
10. Full of Grace
Exact Audio Copy V0.99 prebeta 4 from 23. January 2008
EAC Auslese-Logdatei vom 29. Juni 2008, 11:30
Terminal-3 / Soul Comfort
Benutztes Laufwerk : _NEC DVD_RW ND-4570A Adapter: 1 ID: 0
Lesemodus : Sicher
Benutze Accurate Stream : Ja
Audio Puffer abgeschaltet : Ja
Benutze C2 Fehlerinformationen : Nein
Leseoffset Korrektur : 48
Ьberlesen in das Lead-In und Lead-Out : Nein
Fьlle fehlende Offsetsample mit Stille auf : Ja
Lцsche fьhrende und nachfolgende stille Blцcke : Nein
Null Samples gehen in CRC Berechnungen ein : Ja
Benutzte Schnittstelle : Installierte externe ASPI Schnittstelle
Benutztes Ausgabeformat : Benutzerdefinierter Komprimierer
Gewдhlte Bitrate : 192 kBit/s
Qualitдt : Niedrig
Fьge ID3 Tag hinzu : Ja
Kommandozeilen Komprimierer : C:Program FilesFLACflac1.12.exe
Zusдtzliche Kommandozeilenoptionen : -V -8 -T "artist=%a" -T "title=%t" -T "album=%g" -T "date=%y" -T "tracknumber=%n" -T "genre=%m" %s
Benutze Kompressionsoffset : 0
TOC der ausgelesenen CD
Track | Start | Lдnge | Startsektor | Endsektor
-------------------------------------------------------
1 | 0:00.00 | 3:53.64 | 0 | 17538
2 | 3:53.64 | 3:43.07 | 17539 | 34270
3 | 7:36.71 | 5:24.47 | 34271 | 58617
4 | 13:01.43 | 4:11.03 | 58618 | 77445
5 | 17:12.46 | 4:01.03 | 77446 | 95523
6 | 21:13.49 | 4:31.49 | 95524 | 115897
7 | 25:45.23 | 3:57.34 | 115898 | 133706
8 | 29:42.57 | 3:05.06 | 133707 | 147587
9 | 32:47.63 | 5:30.00 | 147588 | 172337
10 | 38:17.63 | 5:20.06 | 172338 | 196343
Bereichsstatus und Fehler
Gewдhlter Bereich
Dateiname C:Terminal-3 - Soul ComfortTerminal-3 - Soul Comfort.wav
Spitzenpegel 100.0 %
Bereichsqualitдt 100.0 %
Test CRC 1BAEF8CF
Kopie CRC 1BAEF8CF
Kopie OK
Keine Fehler aufgetreten

AccurateRip Ьbersicht

Track 1 akkurat gelesen (Zuversicht 1) [F39A5D31]
Track 2 akkurat gelesen (Zuversicht 1) [055D4E5A]
Track 3 akkurat gelesen (Zuversicht 1) [A16CC0E0]
Track 4 akkurat gelesen (Zuversicht 1) [DFE74169]
Track 5 akkurat gelesen (Zuversicht 1) [8FA71B5D]
Track 6 akkurat gelesen (Zuversicht 1) [FA2675CF]
Track 7 akkurat gelesen (Zuversicht 1) [276796A1]
Track 8 akkurat gelesen (Zuversicht 1) [AE32790D]
Track 9 akkurat gelesen (Zuversicht 1) [9D556139]
Track 10 akkurat gelesen (Zuversicht 1) [AEE81AF8]

Alle Tracks wurden akkurat gelesen
Ende des Statusreports
A collection of sexy, deep, and contemplative downtempo grooves - this album will sure to be the soundtrack to your nights...and these songs will surely hit you in your heart.
Terminal-3's, Soul Comfort is the sonic declaration of their collaboration. Full all of the elements from their eclectic influences, it is simultaneously - rich in atmosphere, seriously sexy, and deeply contemplative. It has also been very well received...
Nic Harcourt, the program director of KCRW, LA's own premiere community radio station, has been spinning Soul Comfort on his show "Morning Becomes Eclectic" with great listener feedback - hitting KCRW's "Top 5 Most Requested' the fist week of play. In addition to also being played on "Blueprint". and NPR"s "Sounds Eclectic".
Six Degrees Records released "Blue Eyed Beat Bangin' Soul" a Terminal-3 original for their 'Latin Travels' compilation, aside St. Germain and Zuco 103.
Remixing, producing, and scoring original music for films are all venus T-3 is pursuing. "Our ideas are forward, and our music is driving these ideas," states Jonathan Paul. "Terminal-3 is just a gateway to this world we're creating. We're audio and visual. Atmosphere and Turbulence."
Lossless

MP3




Alternative download links

hotfile.com-1 hotfile.com-2 HOTFILE

Related MP3 FLAC to Terminal-3 - Soul Comfort (2003)
Feedback
All rights reserved.
WEBBG.com © 2000-2018