Ed Reed - The Song Is You (2008)
MP3 FLAC WMA APE HD

Ed Reed - The Song Is You (2008)

Artist: Ed Reed
Title Of Album: The Song Is You
Year Of Release: 2008
Label: Vocal Jazz, Post-Bop
Genre: Blue Shorts Records
Quality: APE (image+.cue) + log
Bitrate: Lossless
Total Time: 68:10
Total Size: 370 Mb
Ed Reed is a storyteller, one who pours both his heart and nearly 80 years of life experiences—which include vocal studies with Charles Mingus, time in the army and a drug addiction that landed Reed in prison on four separate occasions—into a phrase. On his recent first recording, Love Stories , he debuted a lush tone that belied his age.
Tracklist:
1 The Song Is You Hammerstein, Kern 5:19
2 It Shouldn't Happen to a Dream Ellington, George, Hodges 5:53
3 Where or When Hart, Rodgers 8:54
4 I'm Through with Love Kahn, Livingston, Malneck 2:25
5 All Too Soon Ellington, Sigman 5:20
6 I Get Along Without You VeryWell Carmichael 5:20
7 I Didn't Know About You Ellington, Russell 5:25
8 Don't You Know I Care David, Ellington 4:51
9 Lucky to Be Me Bernstein, Comden, Green 4:01
10 Don't Like Goodbyes Arlen, Capote 5:54
11 It Never Entered My Mind Hart, Rodgers 5:25
12 Here's to Life Butler, Molinary 4:38
13 Black Is Dodge 4:39
Exact Audio Copy V0.99 prebeta 5 from 4. May 2009
EAC extraction logfile from 14. September 2010, 18:45
Ed Reed / The Song Is You
Used drive : PHILIPS DVDR1648P1 Adapter: 2 ID: 0
Read mode : Secure
Utilize accurate stream : Yes
Defeat audio cache : Yes
Make use of C2 pointers : No
Read offset correction : 618
Overread into Lead-In and Lead-Out : No
Fill up missing offset samples with silence : Yes
Delete leading and trailing silent blocks : No
Null samples used in CRC calculations : Yes
Used interface : Native Win32 interface for Win NT & 2000
Used output format : Monkey's Audio Lossless Encoder v3.99 DLL
Sample format : Fast Lossless Compression
TOC of the extracted CD
Track | Start | Length | Start sector | End sector
---------------------------------------------------------
1 | 0:00.00 | 5:19.67 | 0 | 23991
2 | 5:19.67 | 5:53.35 | 23992 | 50501
3 | 11:13.27 | 8:54.15 | 50502 | 90566
4 | 20:07.42 | 2:25.18 | 90567 | 101459
5 | 22:32.60 | 5:20.42 | 101460 | 125501
6 | 27:53.27 | 5:20.35 | 125502 | 149536
7 | 33:13.62 | 5:25.65 | 149537 | 173976
8 | 38:39.52 | 4:51.00 | 173977 | 195801
9 | 43:30.52 | 4:01.33 | 195802 | 213909
10 | 47:32.10 | 5:54.22 | 213910 | 240481
11 | 53:26.32 | 5:25.00 | 240482 | 264856
12 | 58:51.32 | 4:38.65 | 264857 | 285771
13 | 63:30.22 | 4:39.48 | 285772 | 306744
Range status and errors
Selected range
Filename F:Ed Reed - The Song Is You.ape
Peak level 100.0 %
Range quality 100.0 %
Copy CRC 2D43B004
Copy OK
No errors occurred
AccurateRip summary
Track 1 not present in database
Track 2 not present in database
Track 3 not present in database
Track 4 not present in database
Track 5 not present in database
Track 6 not present in database
Track 7 not present in database
Track 8 not present in database
Track 9 not present in database
Track 10 not present in database
Track 11 not present in database
Track 12 not present in database
Track 13 not present in database
None of the tracks are present in the AccurateRip database
End of status report
FileSonic
Turbobit



Alternative download links

DOWNLOAD

Related MP3 FLAC to Ed Reed - The Song Is You (2008)
Feedback
All rights reserved.
WEBBG.com © 2000-2018