Gil Evans - The Honey Man (1994)
MP3 FLAC WMA APE HD

Gil Evans - The Honey Man (1994)

  • Genre: Music, Jazz, FLAC / APE
  • Formats: MP3 FLAC WMA HD APE
  • Album Size: 1547 mb.
  • Archive: ZIP RAR
Artist: Gil Evans
Title Of Album: The Honey Man
Year Of Release: 1994
Label: New Tone Records
Genre: Progressive Jazz
Quality: FLAC (image+.cue) + log
Bitrate: Lossless
Total Time: 62:24
Total Size: 376 Mb
Gil Evans was a jazz pianist, arranger, composer and bandleader, active in the United States. He played an important role in the development of cool jazz, modal jazz, free jazz and jazz fusion, and collaborated extensively with Miles Davis.
Tracklist:
1. Boogie Stop Shuffle (Mingus) - 3:42
2. Subway (Levin) - 16:38
3. Goodbye Pork Pie Hat (Mingus) - 10:24
4. Voodoo Child (Slight Return) (Hendrix) - 8:22
5. Here Come de Honey Man (Gershwin-Gershwin-Heyward) - 13:28
6. Eleven (Davis-Evans) - 9:47
Exact Audio Copy V0.99 prebeta 3 from 28. July 2007
EAC extraction logfile from 7. February 2008, 9:57
Gil Evans / The Honey Man - Live 1986
Used drive : HL-DT-STCD-RW GCE-8525B Adapter: 1 ID: 0
Read mode : Secure
Utilize accurate stream : Yes
Defeat audio cache : Yes
Make use of C2 pointers : No
Combined read/write offset correction : 6
Overread into Lead-In and Lead-Out : No
Fill up missing offset samples with silence : Yes
Delete leading and trailing silent blocks : No
Null samples used in CRC calculations : No
Used interface : Native Win32 interface for Win NT & 2000
Used output format : Internal WAV Routines
Sample format : 44.100 Hz; 16 Bit; Stereo
TOC of the extracted CD
Track | Start | Length | Start sector | End sector
---------------------------------------------------------
1 | 0:00.32 | 3:42.48 | 32 | 16729
2 | 3:43.05 | 16:38.00 | 16730 | 91579
3 | 20:21.05 | 10:24.70 | 91580 | 138449
4 | 30:46.00 | 8:22.15 | 138450 | 176114
5 | 39:08.15 | 13:28.17 | 176115 | 236731
6 | 52:36.32 | 9:48.00 | 236732 | 280831
Range status and errors
Selected range
Filename C:HQ RipsGil Evans - The Honey Man - Live 1986.wav
Peak level 96.7 %
Range quality 100.0 %
Copy CRC 366FB7CB
Copy OK
No errors occurred
End of status report
FileSonic
Wupload



Alternative download links

DOWNLOAD

Related MP3 FLAC to Gil Evans - The Honey Man (1994)
Feedback
All rights reserved.
WEBBG.com © 2000-2018