Pat Benatar - The Essential (2009)
MP3 FLAC WMA APE HD

Pat Benatar - The Essential (2009)

Artist: Pat Benatar
Title: The Essential
Year Of Release: 2009-03-06
Label: EMI Music (EU)
Genre: Rock, Pop Rock, Hard Rock
Quality: FLAC (img.+.cue+.log) | MP3 320kbps
Total Time: 01:17:49
Total Size: 590,24 | 189,10 Mb (Partial Scans)
WebSite:

Pat Benatar is an American singer, songwriter, actress, and four-time Grammy Award winner. Benatar has two RIAA-certified multi-platinum albums, five platinum albums, three gold albums, and 15 Billboard Top 40 singles, including the Top 10 hits "Hit Me with Your Best Shot", "Love Is a Battlefield", "We Belong", and "Invincible". 'The Essential' is a very comprehensive overview of Pat Benatar's career and great starting point for fans and casual listeners alike.
Release of this CD: 2009, March, 6 [CD EMI Music (EU), Cat.# 50999 6 94477 2 3 / UPC: 5099969447723]
This compilation (p) 2009 EMI Music Catalogue Marketing, a division of EMI Music Germany GmbH & Co. KG. (c) 2009 EMI Music Germany GmbH & Co. KG.
Marketed and Distributed by EMI.
Printed in the EU


Tracklist:

01. Love Is A Battlefield (04:11)
02. We Belong (03:39)
03. Fire And Ice (03:21)
04. Treat Me Right (Single Version) (03:14)
05. Shadows Of The Night (03:41)
06. If You Think You Know How To Love Me (Single Version) (03:46)
07. Hit Me With Your Best Shot (02:52)
08. Heartbreaker (03:29)
09. We Live For Love (03:36)
10. Don't Walk Away (Radio Edit) (04:07)
11. Painted Desert (05:26)
12. One Love (Song Of The Lion) (04:29)
13. Wuthering Heights (04:26)
14. Somebody's Baby (03:46)
15. Sex As A Weapon (04:17)
16. Invincible (04:04)
17. Everybody Lay Down (03:59)
18. Little Too Late (03:27)
19. Helter Skelter (03:51)
20. All Fired Up (Single Version) (04:09)

--------------------------------------------------------------------------------
Analyzed: Pat Benatar / The Essential
--------------------------------------------------------------------------------

DR Peak RMS Duration Track
--------------------------------------------------------------------------------
DR8 -0.01 dB -10.11 dB 4:11 01-Love Is A Battlefield
DR8 -0.01 dB -11.41 dB 3:39 02-We Belong
DR8 -0.01 dB -10.26 dB 3:21 03-Fire And Ice
DR8 -0.01 dB -9.91 dB 3:14 04-Treat Me Right (Single Version)
DR8 -0.01 dB -10.28 dB 3:41 05-Shadows Of The Night
DR8 -0.01 dB -10.49 dB 3:46 06-If You Think You Know How To Love Me (Single Version)
DR8 -0.01 dB -8.96 dB 2:52 07-Hit Me With Your Best Shot
DR8 -0.01 dB -9.55 dB 3:29 08-Heartbreaker
DR8 -0.01 dB -9.59 dB 3:36 09-We Live For Love
DR8 -0.01 dB -10.94 dB 4:07 10-Don't Walk Away (Radio Edit)
DR10 -0.01 dB -11.75 dB 5:26 11-Painted Desert
DR8 -0.01 dB -10.09 dB 4:29 12-One Love (Song Of The Lion)
DR9 -0.01 dB -11.87 dB 4:26 13-Wuthering Heights
DR8 -0.01 dB -9.45 dB 3:46 14-Somebody's Baby
DR7 -0.01 dB -8.46 dB 4:17 15-Sex As A Weapon
DR8 -0.01 dB -9.36 dB 4:04 16-Invincible
DR7 -0.01 dB -8.52 dB 3:59 17-Everybody Lay Down
DR8 -0.01 dB -9.11 dB 3:27 18-Little Too Late
DR9 -0.01 dB -10.43 dB 3:51 19-Helter Skelter
DR8 -0.01 dB -9.77 dB 4:09 20-All Fired Up (Single Version)
--------------------------------------------------------------------------------

Number of tracks: 20
Official DR value: DR8

Samplerate: 44100 Hz
Channels: 2
Bits per sample: 16
Bitrate: 1011 kbps
Codec: FLAC
================================================================================




Alternative download links

Turbobit Turbobit

Related MP3 FLAC to Pat Benatar - The Essential (2009)
Feedback
All rights reserved.
WEBBG.com © 2000-2018