Robin Thicke - Something Else (2008)
MP3 FLAC WMA APE HD

Robin Thicke - Something Else (2008)

  • Genre: Music, Soul, FLAC / APE
  • Formats: MP3 FLAC WMA HD APE
  • Album Size: 1512 mb.
  • Archive: ZIP RAR
Artist: Robin Thicke
Title: Something Else
Year Of Release: 2008
Label: Interscope Records[0602517809895]
Genre: Rock, Soul
Quality: FLAC (tracks + .cue,log,scans)
Total Time: 50:26
Total Size: 322 MB(+3%)
WebSite:

Tracklist

1. You're My Baby 4:17
2. Sidestep 4:11
3. Magic 3:53
4. Ms. Harmony 4:48
5. Dreamworld 4:39
6. Loverman 4:42
7. Hard On My Love 3:36
8. The Sweetest Love 3:55
9. Something Else 3:16
10. Shadow of Doubt 3:27
11. Cry No More 4:18
12. Tie My Hands 5:21

On his third album, Something Else (released in the U.S. on Sept. 30, 2008), Blue-Eyed Soul singer Robin Thicke continues his evolution as a person and an artist. The album, which is the follow-up to his 2006 breakthrough The Evolution of Robin Thicke, is a little more mature, a little more sexy and a little more polished than his first two albums. The new album's also essentially a tribute to '70s Soul music, particularly that of the late, great Marvin Gaye. The album isn't entirely retro though; it somehow manages to expertly - and easily - walk the fine line between classic and modern-day Soul music.
Exact Audio Copy V0.99 prebeta 3 from 28. July 2007

EAC extraction logfile from 4. October 2008, 14:54

Robin Thicke / Something Else

Used drive : LITE-ON COMBO LTC-48161H Adapter: 1 ID: 0

Read mode : Secure
Utilize accurate stream : Yes
Defeat audio cache : Yes
Make use of C2 pointers : No

Read offset correction : 6
Overread into Lead-In and Lead-Out : No
Fill up missing offset samples with silence : Yes
Delete leading and trailing silent blocks : No
Null samples used in CRC calculations : Yes
Used interface : Native Win32 interface for Win NT & 2000
Gap handling : Appended to previous track

Used output format : User Defined Encoder
Selected bitrate : 192 kBit/s
Quality : High
Add ID3 tag : No
Command line compressor : C:Program FilesExact Audio CopyFlacflac.exe
Additional command line options : -8 -A tukey(0.25) -A gauss(0.1875) -b 4096 -V -T "artist=%a" -T "title=%t" -T "album=%g" -T "date=%y" -T "tracknumber=%n" -T "genre=%m" %s --sector-align


TOC of the extracted CD

Track | Start | Length | Start sector | End sector
---------------------------------------------------------
1 | 0:00.00 | 4:16.71 | 0 | 19270
2 | 4:16.71 | 4:11.22 | 19271 | 38117
3 | 8:28.18 | 3:53.21 | 38118 | 55613
4 | 12:21.39 | 4:47.53 | 55614 | 77191
5 | 17:09.17 | 4:39.22 | 77192 | 98138
6 | 21:48.39 | 4:42.28 | 98139 | 119316
7 | 26:30.67 | 3:36.05 | 119317 | 135521
8 | 30:06.72 | 3:55.16 | 135522 | 153162
9 | 34:02.13 | 3:16.26 | 153163 | 167888
10 | 37:18.39 | 3:27.67 | 167889 | 183480
11 | 40:46.31 | 4:18.36 | 183481 | 202866
12 | 45:04.67 | 5:21.13 | 202867 | 226954


Track 1

Filename C:EAC rips1 - Robin Thicke - You're My Baby.wav

Pre-gap length 0:00:02.00

Peak level 99.8 %
Track quality 100.0 %
Test CRC B741BBA8
Copy CRC B741BBA8
Track not present in AccurateRip database
Copy OK

Track 2

Filename C:EAC rips2 - Robin Thicke - Sidestep.wav

Peak level 98.8 %
Track quality 100.0 %
Test CRC C09B3A5F
Copy CRC C09B3A5F
Track not present in AccurateRip database
Copy OK

Track 3

Filename C:EAC rips3 - Robin Thicke - Magic.wav

Peak level 99.8 %
Track quality 100.0 %
Test CRC C46040E6
Copy CRC C46040E6
Track not present in AccurateRip database
Copy OK

Track 4

Filename C:EAC rips4 - Robin Thicke - Mr. Harmony.wav

Pre-gap length 0:00:00.05

Peak level 97.7 %
Track quality 100.0 %
Test CRC B5FA8CC1
Copy CRC B5FA8CC1
Track not present in AccurateRip database
Copy OK

Track 5

Filename C:EAC rips5 - Robin Thicke - Dreamworld.wav

Peak level 99.8 %
Track quality 99.9 %
Test CRC 62269DB0
Copy CRC 62269DB0
Track not present in AccurateRip database
Copy OK

Track 6

Filename C:EAC rips6 - Robin Thicke - Loverman.wav

Peak level 97.7 %
Track quality 100.0 %
Test CRC 88143245
Copy CRC 88143245
Track not present in AccurateRip database
Copy OK

Track 7

Filename C:EAC rips7 - Robin Thicke - Hard On My Love.wav

Peak level 94.0 %
Track quality 100.0 %
Test CRC 0421EAC2
Copy CRC 0421EAC2
Track not present in AccurateRip database
Copy OK

Track 8

Filename C:EAC rips8 - Robin Thicke - The Sweetest Love.wav

Pre-gap length 0:00:00.18

Peak level 99.8 %
Track quality 100.0 %
Test CRC 70F8F1D8
Copy CRC 70F8F1D8
Track not present in AccurateRip database
Copy OK

Track 9

Filename C:EAC rips9 - Robin Thicke - Something Else.wav

Pre-gap length 0:00:00.16

Peak level 99.8 %
Track quality 100.0 %
Test CRC 2C264BF3
Copy CRC 2C264BF3
Track not present in AccurateRip database
Copy OK

Track 10

Filename C:EAC rips10 - Robin Thicke - Shadow of Doubt.wav

Pre-gap length 0:00:00.06

Peak level 99.8 %
Track quality 99.9 %
Test CRC C94BFF2B
Copy CRC C94BFF2B
Track not present in AccurateRip database
Copy OK

Track 11

Filename C:EAC rips11 - Robin Thicke - Cry No More.wav

Pre-gap length 0:00:00.60

Peak level 99.8 %
Track quality 100.0 %
Test CRC B0B3D940
Copy CRC B0B3D940
Track not present in AccurateRip database
Copy OK

Track 12

Filename C:EAC rips12 - Robin Thicke - Tie My Hands feat. Lil Wayne.wav

Peak level 100.0 %
Track quality 100.0 %
Test CRC 3DE985CA
Copy CRC 3DE985CA
Track not present in AccurateRip database
Copy OK


None of the tracks are present in the AccurateRip database

No errors occurred

End of status report









Alternative download links

Turbobit

Related MP3 FLAC to Robin Thicke - Something Else (2008)
Feedback
All rights reserved.
WEBBG.com © 2000-2018