Wigwam - Nuclear Nightclub (1975)
MP3 FLAC WMA APE HD

Wigwam - Nuclear Nightclub (1975)

Artist: Wigwam
Title Of Album: Nuclear Nightclub
Year Of Release: 1975
Label: Esoteric Rekordings
Genre: Progressive Rock
Quality: FLAC (image+.cue) + log
Bitrate: Lossless
Total Time: 36:52
Total Size: 255 Mb
"Nuclear Nightclub" - a wonderful album by Wigwam, released in 1975. All tracks included in this album are true works of art! Advise!
Tracklist:
1. Nuclear nightclub (2:45)
2. Freddie are you ready (5:36)
3. Bless your lucky stars (5:58)
4. Kite (4:15)
5. Do or die (5:03)
6. Simple human kindness (4:02)
7. Save my money and my name (4:07)
8. Pig storm (4:39)
Exact Audio Copy V1.0 beta 2 from 29. April 2011
Отчёт EAC об извлечении, выполненном 11. августа 2011, 11:24
Wigwam / Nuclear Nightclub
Дисковод: Optiarc DVD RW AD-5200A Adapter: 0 ID: 0
Режим чтения : Достоверность
Использование точного потока : Да
Отключение кэша аудио : Да
Использование указателей C2 : Нет
Коррекция смещения при чтении : 48
Способность читать области Lead-in и Lead-out : Нет
Заполнение пропущенных сэмплов тишиной : Да
Удаление блоков с тишиной в начале и конце : Нет
При вычислениях CRC использовались нулевые сэмплы : Нет
Интерфейс : Установленный внешний ASPI-интерфейс
Выходной формат : Внутренние WAV-операции
Формат сэмплов : 44.100 Гц; 16 бит; стерео
TOC извлечённого CD
Трек | Старт | Длительность | Начальный сектор | Конечный сектор
---------------------------------------------------------------------
1 | 0:00.00 | 2:46.12 | 0 | 12461
2 | 2:46.12 | 5:37.50 | 12462 | 37786
3 | 8:23.62 | 6:03.13 | 37787 | 65024
4 | 14:27.00 | 4:17.29 | 65025 | 84328
5 | 18:44.29 | 5:06.32 | 84329 | 107310
6 | 23:50.61 | 4:05.43 | 107311 | 125728
7 | 27:56.29 | 4:10.64 | 125729 | 144542
8 | 32:07.18 | 4:44.74 | 144543 | 165916
Характеристики диапазона извлечения и сообщения об ошибках
Выбранный диапазон
Имя файла D:Wigwam - Nuclear Nightclub - 1975Wigwam - Nuclear Nightclub.wav
Пиковый уровень 99.4 %
Скорость извлечения 3.3 X
Качество диапазона 100.0 %
CRC копии 9DCA8039
Копирование... OK
Ошибок не произошло
AccurateRip: сводка
Трек 1 : извлечено точно (доверие 1) [02641453] (AR v1)
Трек 2 : извлечено точно (доверие 1) [4112E8D1] (AR v1)
Трек 3 : извлечено точно (доверие 1) [25030214] (AR v1)
Трек 4 : извлечено точно (доверие 1) [0DD2F106] (AR v1)
Трек 5 : извлечено точно (доверие 1) [420606AE] (AR v1)
Трек 6 : извлечено точно (доверие 1) [037F62B0] (AR v1)
Трек 7 : извлечено точно (доверие 1) [4DF621AB] (AR v1)
Трек 8 : извлечено точно (доверие 1) [6EE240D0] (AR v1)
Все треки извлечены точно
Конец отчёта
FileSonic
Wupload



Alternative download links

DOWNLOAD

Related MP3 FLAC to Wigwam - Nuclear Nightclub (1975)
Feedback
All rights reserved.
WEBBG.com © 2000-2018