Chick Corea Hiromi Uehara - Duet (2008)
MP3 FLAC WMA APE HD

Chick Corea Hiromi Uehara - Duet (2008)

Artist: Chick Corea & Hiromi Uehara
Title Of Album: Duet
Year Of Release: 2008
Label: Concord Records
Genre: Jazz, Fusion, Instrumental
Quality: FLAC (Img,cue,log,scans)|MP3
Bitrate: lossless & 320kbps
Total Time: 01:54:26 min
Total Size: 545 mb/277 mb
TRACKLIST
CD1:
01. Very Early
02. How Insensitive
03. Deja Vu
04. Fool on the Hill
05. Humpty Dumpty
06. Bolivar Blues
CD2:
01. Windows
02. Old Castle, by the river, in the middle of a forest
03. Summertime
04. Place To Be
05. Do Mo (Children's Song #12)
06. Concierto de Aranjuez / Spain
Exact Audio Copy V0.99 prebeta 4 from 23. January 2008
EAC extraction logfile from 6. September 2008, 19:32
Chick & Hiromi / Duet
Used drive : PIONEER DVD-RW DVR-212D Adapter: 1 ID: 0
Read mode : Secure
Utilize accurate stream : Yes
Defeat audio cache : Yes
Make use of C2 pointers : No
Read offset correction : 48
Overread into Lead-In and Lead-Out : No
Fill up missing offset samples with silence : Yes
Delete leading and trailing silent blocks : No
Null samples used in CRC calculations : No
Used interface : Native Win32 interface for Win NT & 2000
Used output format : Internal WAV Routines
Sample format : 44.100 Hz; 16 Bit; Stereo
TOC of the extracted CD
Track | Start | Length | Start sector | End sector
---------------------------------------------------------
1 | 0:00.00 | 9:15.14 | 0 | 41638
2 | 9:15.14 | 7:38.48 | 41639 | 76036
3 | 16:53.62 | 9:02.32 | 76037 | 116718
4 | 25:56.19 | 6:47.56 | 116719 | 147299
5 | 32:44.00 | 7:51.14 | 147300 | 182638
6 | 40:35.14 | 8:45.62 | 182639 | 222075
Range status and errors
Selected range
Filename C:_rip_duetChick & Hiromi - Duet CD1.wav
Peak level 100.0 %
Range quality 99.9 %
Copy CRC 68830D16
Copy OK
No errors occurred

AccurateRip summary

Track 1 accurately ripped (confidence 6) [9152E4C5]
Track 2 accurately ripped (confidence 5) [D1C4E743]
Track 3 accurately ripped (confidence 5) [7677F1D8]
Track 4 accurately ripped (confidence 5) [50834E20]
Track 5 accurately ripped (confidence 5) [69084469]
Track 6 accurately ripped (confidence 5) [1E1A43CA]

All tracks accurately ripped
End of status report
Exact Audio Copy V0.99 prebeta 4 from 23. January 2008
EAC extraction logfile from 6. September 2008, 19:46
Chick & Hiromi / Duet
Used drive : PIONEER DVD-RW DVR-212D Adapter: 1 ID: 0
Read mode : Secure
Utilize accurate stream : Yes
Defeat audio cache : Yes
Make use of C2 pointers : No
Read offset correction : 48
Overread into Lead-In and Lead-Out : No
Fill up missing offset samples with silence : Yes
Delete leading and trailing silent blocks : No
Null samples used in CRC calculations : No
Used interface : Native Win32 interface for Win NT & 2000
Used output format : Internal WAV Routines
Sample format : 44.100 Hz; 16 Bit; Stereo
TOC of the extracted CD
Track | Start | Length | Start sector | End sector
---------------------------------------------------------
1 | 0:00.00 | 7:46.57 | 0 | 35006
2 | 7:46.57 | 14:58.71 | 35007 | 102427
3 | 22:45.53 | 8:51.45 | 102428 | 142297
4 | 31:37.23 | 8:13.20 | 142298 | 179292
5 | 39:50.43 | 13:02.64 | 179293 | 238006
6 | 52:53.32 | 12:11.52 | 238007 | 292883
Range status and errors
Selected range
Filename C:_rip_duetChick & Hiromi - Duet CD2.wav
Peak level 100.0 %
Range quality 100.0 %
Copy CRC 509753B5
Copy OK
No errors occurred

AccurateRip summary

Track 1 not present in database
Track 2 not present in database
Track 3 not present in database
Track 4 not present in database
Track 5 not present in database
Track 6 not present in database

None of the tracks are present in the AccurateRip database
End of status report
Download
If links are broken please send me PM



Alternative download links

Uploaded 320 kbps

Related MP3 FLAC to Chick Corea Hiromi Uehara - Duet (2008)
Feedback
All rights reserved.
WEBBG.com © 2000-2018