American Blues Box - American Blues Box (2006)
MP3 FLAC WMA APE HD

American Blues Box - American Blues Box (2006)

Artist: American Blues Box
Title Of Album: American Blues Box
Year Of Release: 2006
Label: Apocalypse Records
Genre: Blues, Rock, Southern Rock
Quality: FLAC (image+.cue) + log
Bitrate: Lossless
Total Time: 00:44:32
Total Size: 338 Mb
American Blues Box, was formed in 2004 by front-man, songwriter Derek Davis and drummer James Pacheco. Derek and James are original members of former Arista Recording artists Babylon A.D.
Tracklist:
01 - Mississippi Mud
02 - Uncondional Love
03 - Some Kind of Wonderful
04 - Whiskey and Water
05 - Killing Time
06 - When You Were Young
07 - Red Hot Lover
08 - Rattle My Bones
09 - Biscuit Bakin Mama
10 - Half the Man
11 - Shake Your Tree
12 - I Can't Hold Out (Live)
Exact Audio Copy V1.0 beta 2 from 29. April 2011
Отчёт EAC об извлечении, выполненном 8. августа 2011, 0:42
American Blues Box / American Blues Box
Дисковод: HL-DT-STDVDRAM GH22LS50 Adapter: 2 ID: 1
Режим чтения : Достоверность
Использование точного потока : Да
Отключение кэша аудио : Да
Использование указателей C2 : Нет
Коррекция смещения при чтении : 667
Способность читать области Lead-in и Lead-out : Нет
Заполнение пропущенных сэмплов тишиной : Да
Удаление блоков с тишиной в начале и конце : Нет
При вычислениях CRC использовались нулевые сэмплы : Да
Интерфейс : Установленный внешний ASPI-интерфейс
Выходной формат : Пользовательский кодировщик
Выбранный битрейт : 128 kBit/s
Качество : Высокий
Добавление ID3-тега : Нет
Утилита сжатия : C:Program FilesFLACflac.exe
Дополнительные параметры : -V -8 -T "Date=%year%" -T "Genre=%genre%" %source%
TOC извлечённого CD
Трек | Старт | Длительность | Начальный сектор | Конечный сектор
---------------------------------------------------------------------
1 | 0:00.00 | 4:30.05 | 0 | 20254
2 | 4:30.05 | 3:14.40 | 20255 | 34844
3 | 7:44.45 | 4:42.45 | 34845 | 56039
4 | 12:27.15 | 4:03.30 | 56040 | 74294
5 | 16:30.45 | 4:32.10 | 74295 | 94704
6 | 21:02.55 | 2:31.10 | 94705 | 106039
7 | 23:33.65 | 3:42.65 | 106040 | 122754
8 | 27:16.55 | 3:56.25 | 122755 | 140479
9 | 31:13.05 | 2:17.70 | 140480 | 150824
10 | 33:31.00 | 3:24.55 | 150825 | 166179
11 | 36:55.55 | 3:44.65 | 166180 | 183044
12 | 40:40.45 | 3:57.62 | 183045 | 200881
Характеристики диапазона извлечения и сообщения об ошибках
Выбранный диапазон
Имя файла I:_000 РАЗДАЧАNEWAmerican Blues Box - American Blues Box (flac)American Blues Box - American Blues Box.wav
Пиковый уровень 100.0 %
Скорость извлечения 1.9 X
Качество диапазона 100.0 %
CRC теста F589E1AA
CRC копии F589E1AA
Копирование... OK
Ошибок не произошло
Конец отчёта
FileSonic
Wupload



Alternative download links

DOWNLOAD

Related MP3 FLAC to American Blues Box - American Blues Box (2006)
Feedback
All rights reserved.
WEBBG.com © 2000-2018