Joe Cocker - Gold
MP3 FLAC WMA APE HD

Joe Cocker - Gold

  • Genre: Music, Blues, FLAC / APE
  • Formats: MP3 FLAC WMA HD APE
  • Album Size: 1342 mb.
  • Archive: ZIP RAR

Free download links


Joe Cocker - Gold .zip
MP3 version ZIP archive

1342 downloads at 30 mb/s

Joe Cocker - Gold .zip
FLAC/APE version ZIP archive

943 downloads at 22 mb/s
Artist: Joe Cocker
Title Of Album: Joe Cocker - Gold
Year Of Release: March 7, 2006
Label: Hip-O Records
Genre: Blues
Quality: APE
Bitrate: lossless-image +cue +log +Booklet/SCANS
Total Size: 923 Mb
The album reflects on not only his time with the A&M era, but also branches out quite nicely with his times through Capitol and independent records through his 90's and 80's periods as well. The album includes some great Joe Cocker classics like You Can Leave Your Hat On, the #1 ballad You Are So Beautiful, Up Where We Belong with Jennifer Warnes from An Officer And A Gentleman, Civilized Man, and his bluesy rendidtion of Elton John's Sorry Seems To Be The Hardest Word. While the album does a better job reflecting Joe, there still are a few of his songs that were overlooked including his rendiditon of the Inxs classic Never Tear Us Apart from his 2002 album Respect Yourself, Don't You Love Me Anymore, and Feels Like Forever. Gold set is highly recommended.
Tracklist:
Disc 1
01.Feelin' Alright
02.With A Little Help From My Friends
03.Delta Lady
04.She Came In Through The Bathroom Window
05.Something
06.Darling Be Home Soon
07.The Letter (Live)
08.Cry Me A River (Live)
09.High Time We Went
10.Black-Eyed Blues
11.Midnight Rider
12.Put Out The Light
13.I Can Stand A Little Rain
14.You Are So Beautiful
15.I Think It's Gonna Rain Today
16.The Jealous Kind
17.Fun Time
18.I'm So Glad I'm Standing Here Today (with The Crusaders)
Disc 2
01.Sweet Little Woman
02.Many Rivers To Cross
03.Up Where We Belong (Duet with Jennifer Warnes)
04.Civilized Man
05.Shelter Me
06.You Can Leave Your Hat On
07.Unchain My Heart
08.When The Night Comes
09.Sorry Seems To Be The Hardest Word
10.Night Calls
11.Now That The Magic Has Gone
12.Summer In The City
13.Have A Little Faith In Me
14.Sail Away
15.Tonight
16.First We Take Manhattan
17.You Cant Have My Heart
18.One
Exact Audio Copy V0.99 prebeta 4 from 23. January 2008
Отчёт EAC об извлечении, выполненном 26. февраля 2009, 7:52
Joe Cocker / Joe Cocker Gold (Disc 1)
Дисковод: TSSTcorpDVD+-RW TS-L632D Adapter: 1 ID: 0
Режим чтения : Достоверность
Использование точного потока : Да
Отключение кэша аудио : Да
Использование указателей C2 : Нет
Коррекция смещения при чтении : 6
Способность читать области Lead-in и Lead-out : Нет
Заполнение пропущенных сэмплов тишиной : Да
Удаление блоков с тишиной в начале и конце : Нет
При вычислениях CRC использовались нулевые сэмплы : Да
Интерфейс : Установленный внешний ASPI-интерфейс
Выходной формат : Внутренние WAV-операции
Формат сэмплов : 44.100 Гц; 16 бит; стерео
TOC извлечённого CD
Трек | Старт | Длительность | Начальный сектор | Конечный сектор
---------------------------------------------------------------------
1 | 0:00.00 | 4:10.62 | 0 | 18811
2 | 4:10.62 | 5:12.49 | 18812 | 42260
3 | 9:23.36 | 2:51.33 | 42261 | 55118
4 | 12:14.69 | 2:38.28 | 55119 | 66996
5 | 14:53.22 | 3:33.10 | 66997 | 82981
6 | 18:26.32 | 4:42.15 | 82982 | 104146
7 | 23:08.47 | 4:33.57 | 104147 | 124678
8 | 27:42.29 | 3:57.10 | 124679 | 142463
9 | 31:39.39 | 4:29.43 | 142464 | 162681
10 | 36:09.07 | 4:36.69 | 162682 | 183450
11 | 40:46.01 | 3:58.45 | 183451 | 201345
12 | 44:44.46 | 4:12.38 | 201346 | 220283
13 | 48:57.09 | 3:33.38 | 220284 | 236296
14 | 52:30.47 | 2:44.20 | 236297 | 248616
15 | 55:14.67 | 4:00.04 | 248617 | 266620
16 | 59:14.71 | 3:49.41 | 266621 | 283836
17 | 63:04.37 | 2:38.38 | 283837 | 295724
18 | 65:43.00 | 5:01.44 | 295725 | 318343
Характеристики диапазона извлечения и сообщения об ошибках
Выбранный диапазон
Имя файла D:MusicТорентJoe Cocker Gold 2CDJoe Cocker - Joe Cocker Gold (Disc 1)Joe Cocker - Joe Cocker Gold (Disc 1).wav
Пиковый уровень 97.3 %
Качество диапазона 100.0 %
CRC копии 0BCB6A81
Копирование... OK
Ошибок не произошло
Конец отчёта
Exact Audio Copy V0.99 prebeta 4 from 23. January 2008
Отчёт EAC об извлечении, выполненном 26. февраля 2009, 7:10
Joe Cocker / Joe Cocker Gold (Disc 2)
Дисковод: TSSTcorpDVD+-RW TS-L632D Adapter: 1 ID: 0
Режим чтения : Достоверность
Использование точного потока : Да
Отключение кэша аудио : Да
Использование указателей C2 : Нет
Коррекция смещения при чтении : 6
Способность читать области Lead-in и Lead-out : Нет
Заполнение пропущенных сэмплов тишиной : Да
Удаление блоков с тишиной в начале и конце : Нет
При вычислениях CRC использовались нулевые сэмплы : Да
Интерфейс : Установленный внешний ASPI-интерфейс
Выходной формат : Внутренние WAV-операции
Формат сэмплов : 44.100 Гц; 16 бит; стерео
TOC извлечённого CD
Трек | Старт | Длительность | Начальный сектор | Конечный сектор
---------------------------------------------------------------------
1 | 0:00.00 | 4:02.18 | 0 | 18167
2 | 4:02.18 | 3:44.38 | 18168 | 35005
3 | 7:46.56 | 3:53.51 | 35006 | 52531
4 | 11:40.32 | 3:55.27 | 52532 | 70183
5 | 15:35.59 | 4:21.48 | 70184 | 89806
6 | 19:57.32 | 4:14.61 | 89807 | 108917
7 | 24:12.18 | 5:06.48 | 108918 | 131915
8 | 29:18.66 | 3:58.66 | 131916 | 149831
9 | 33:17.57 | 3:59.11 | 149832 | 167767
10 | 37:16.68 | 3:26.70 | 167768 | 183287
11 | 40:43.63 | 4:39.11 | 183288 | 204223
12 | 45:22.74 | 3:49.39 | 204224 | 221437
13 | 49:12.38 | 4:16.18 | 221438 | 240655
14 | 53:28.56 | 3:01.33 | 240656 | 254263
15 | 56:30.14 | 4:48.72 | 254264 | 275935
16 | 61:19.11 | 3:43.18 | 275936 | 292678
17 | 65:02.29 | 4:00.63 | 292679 | 310741
18 | 69:03.17 | 4:32.34 | 310742 | 331175
Характеристики диапазона извлечения и сообщения об ошибках
Выбранный диапазон
Имя файла D:MusicТорентJoe Cocker - Joe Cocker Gold (Disc 2).wav
Пиковый уровень 100.0 %
Качество диапазона 100.0 %
CRC копии 46B4A731
Копирование... OK
Ошибок не произошло
Конец отчёта
Download Joe Cocker - Gold :
Fileserve.com:
Hotfile.com
Pass: israbox.download
Thanks to the original Publicist "sergemon7"
If you'll find that my links are dead please let me know through the Private Messages.
Please DO NOT MIRROR



Alternative download links

fileserve.com Part 1 fileserve.com Part 2 fileserve.com Part 3 fileserve.com Part 4 fileserve.com Part 5 hotfile.com Part 1 hotfile.com Part 2 hotfile.com Part 3 hotfile.com Part 4 hotfile.com Part 5

Related MP3 FLAC to Joe Cocker - Gold
Feedback
All rights reserved.
WEBBG.com © 2000-2018