Thunderhead - Thunderhead75 (2011)
MP3 FLAC WMA APE HD

Thunderhead - Thunderhead75 (2011)

Artist: Thunderhead
Title Of Album: Thunderhead'75
Year Of Release: 2011
Genre: Blues-Rock
Quality: APE (*.ape)
Bitrate: image+.cue
Total Time: 41:17
Total Size: 279 MB
Tracklist:
01. Busted In Georgia [0:04:13.21]
02. Roll Up The Hill [0:04:15.78]
03. Lay It On the Line [0:04:17.09]
04. Make Your Own Good News [0:04:08.08]
05. Apathy [0:03:46.76]
06. Stop The Madness [0:04:03.70]
07. Hit And Run Driver [0:04:14.54]
08. Space Saver [0:07:20.25]
09. Houma [0:04:57.08]
Exact Audio Copy V0.99 prebeta 4 from 23. January 2008
EAC extraction logfile from 20. February 2011, 19:38
Thunderhead / Thunderhead'75
Used drive : Optiarc DVD RW AD-7173A Adapter: 3 ID: 0
Read mode : Secure
Utilize accurate stream : Yes
Defeat audio cache : Yes
Make use of C2 pointers : No
Read offset correction : 48
Overread into Lead-In and Lead-Out : No
Fill up missing offset samples with silence : Yes
Delete leading and trailing silent blocks : No
Null samples used in CRC calculations : Yes
Used interface : Native Win32 interface for Win NT & 2000
Used output format : Internal WAV Routines
Sample format : 44.100 Hz; 16 Bit; Stereo
TOC of the extracted CD
Track | Start | Length | Start sector | End sector
---------------------------------------------------------
1 | 0:00.00 | 4:13.16 | 0 | 18990
2 | 4:13.16 | 4:15.59 | 18991 | 38174
3 | 8:29.00 | 4:17.07 | 38175 | 57456
4 | 12:46.07 | 4:08.06 | 57457 | 76062
5 | 16:54.13 | 3:46.57 | 76063 | 93069
6 | 20:40.70 | 4:03.53 | 93070 | 111347
7 | 24:44.48 | 4:14.41 | 111348 | 130438
8 | 28:59.14 | 7:20.19 | 130439 | 163457
9 | 36:19.33 | 4:57.06 | 163458 | 185738
Range status and errors
Selected range
Filename D:КОЛЛЕКЦИЯ 10Новая папка Thunderhead - Thunderhead'75.wav
Peak level 99.2 %
Range quality 99.9 %
Test CRC 445D616A
Copy CRC 445D616A
Copy OK
No errors occurred
AccurateRip summary
Track 1 not present in database
Track 2 not present in database
Track 3 not present in database
Track 4 not present in database
Track 5 not present in database
Track 6 not present in database
Track 7 not present in database
Track 8 not present in database
Track 9 not present in database
None of the tracks are present in the AccurateRip database
End of status report




Alternative download links

turbobit.net

Related MP3 FLAC to Thunderhead - Thunderhead75 (2011)
Feedback
All rights reserved.
WEBBG.com © 2000-2018