Chet Baker - Chet Baker in Paris (1997)
MP3 FLAC WMA APE HD

Chet Baker - Chet Baker in Paris (1997)

  • Genre: Music, Jazz, FLAC / APE
  • Formats: MP3 FLAC WMA HD APE
  • Album Size: 1812 mb.
  • Archive: ZIP RAR
Artist: Chet Baker
Title Of Album: Chet Baker in Paris
Year Of Release: 1997
Label: Records / West Wind
Genre: West Coast Jazz, Cool Jazz
Quality: APE (image+.cue) + log
Bitrate: Lossless
Total Time: 01:19:08
Total Size: 429 Mb
Chesney Henry "Chet" Baker, Jr. (December 23, 1929 – May 13, 1988) was an American jazz trumpeter, flugelhorn player and singer. Baker established a large following, based in part on his talent, his "matinee idol beauty, emotionally remote performances, and well publicized drug habit." He died in 1988 after falling from a second-story window of a hotel in Amsterdam, Netherlands.
Tracklist:
1. For Minors Only 8:59
2. Chasing the Bird 10:07
3. But Not for Me 6:51
4. Down 10:40
5. My Funny Valentine 11:32
6. Just Friends 7:17
7. Tempus Fugit 11:12
8. Tune Up 11:00
Exact Audio Copy V0.99 prebeta 4 from 23. January 2008
EAC extraction logfile from 29. November 2009, 17:59
Chat Baker / In Paris
Used drive : HL-DT-STRW/DVD GCC-4242N Adapter: 1 ID: 0
Read mode : Secure
Utilize accurate stream : Yes
Defeat audio cache : Yes
Make use of C2 pointers : No
Read offset correction : 102
Overread into Lead-In and Lead-Out : No
Fill up missing offset samples with silence : Yes
Delete leading and trailing silent blocks : No
Null samples used in CRC calculations : Yes
Used interface : Native Win32 interface for Win NT & 2000
Used output format : Internal WAV Routines
Sample format : 44.100 Hz; 16 Bit; Stereo
TOC of the extracted CD
Track | Start | Length | Start sector | End sector
---------------------------------------------------------
1 | 0:00.00 | 8:59.60 | 0 | 40484
2 | 8:59.60 | 10:14.22 | 40485 | 86556
3 | 19:14.07 | 6:59.55 | 86557 | 118036
4 | 26:13.62 | 10:46.58 | 118037 | 166544
5 | 37:00.45 | 11:45.50 | 166545 | 219469
6 | 48:46.20 | 8:09.15 | 219470 | 256159
7 | 56:55.35 | 11:12.40 | 256160 | 306599
8 | 68:08.00 | 11:00.40 | 306600 | 356139
Range status and errors
Selected range
Filename C:_EAC_OutOutChat Baker - In ParisChat Baker - In Paris.wav
Peak level 93.0 %
Range quality 99.9 %
Copy CRC E25A1D0A
Copy OK
No errors occurred
AccurateRip summary
Track 1 not present in database
Track 2 not present in database
Track 3 not present in database
Track 4 not present in database
Track 5 not present in database
Track 6 not present in database
Track 7 not present in database
Track 8 not present in database
None of the tracks are present in the AccurateRip database
End of status report
FileSonic
Wupload



Alternative download links

DOWNLOAD

Related MP3 FLAC to Chet Baker - Chet Baker in Paris (1997)
Feedback
All rights reserved.
WEBBG.com © 2000-2018