Chris De Burgh - The Getaway
MP3 FLAC WMA APE HD

Chris De Burgh - The Getaway

Artist: Chris De Burgh
Title Of Album: The Getaway
Year Of Release: April 10, 1985
Label: Universal I.S.
Genre: Rock Indie, Pop
Quality: APE(Image+Cue+Log+Covers)/mp3
Bitrate: Lossless/320kbps
Total Time: 44:50 min
Total Size: 257Mb/109Mb(+5%rec)
WebSite:
Tracklist:
1. Don't Pay the Ferryman
2. Living on the Island
3. Crying and Laughing
4. I'm Counting on You
5. The Getaway
6. Ship to Shore
7. All the Love I Have Inside
8. Borderline
9. Where Peaceful Waters Flow
10. The Revolution
11. Light a Fire
12. Liberty
Exact Audio Copy V0.99 prebeta 3 from 28. July 2007
Отчёт EAC об извлечении, выполненном 9. июля 2010, 0:38
Chris De Burgh / The Getaway
Дисковод: Optiarc DVD RW AD-7560A Adapter: 0 ID: 0
Режим чтения : Достоверность
Использование точного потока : Да
Отключение кэша аудио : Да
Использование указателей C2 : Нет
Коррекция смещения при чтении : 6
Способность читать области Lead-in и Lead-out : Нет
Заполнение пропущенных сэмплов тишиной : Да
Удаление блоков с тишиной в начале и конце : Нет
При вычислениях CRC использовались нулевые сэмплы : Да
Интерфейс : Встроенный Win32-интерфейс для Win NT/2000
Выходной формат : Внутренние WAV-операции
Формат сэмплов : 44.100 Гц; 16 бит; стерео
TOC извлечённого CD
Трек | Старт | Длительность | Начальный сектор | Конечный сектор
---------------------------------------------------------------------
1 | 0:00.33 | 3:48.67 | 33 | 17199
2 | 3:49.25 | 3:31.18 | 17200 | 33042
3 | 7:20.43 | 4:33.50 | 33043 | 53567
4 | 11:54.18 | 4:27.60 | 53568 | 73652
5 | 16:22.03 | 3:52.02 | 73653 | 91054
6 | 20:14.05 | 3:49.18 | 91055 | 108247
7 | 24:03.23 | 3:18.52 | 108248 | 123149
8 | 27:22.00 | 4:37.63 | 123150 | 143987
9 | 31:59.63 | 3:54.20 | 143988 | 161557
10 | 35:54.08 | 1:46.07 | 161558 | 169514
11 | 37:40.15 | 2:08.30 | 169515 | 179144
12 | 39:48.45 | 5:02.08 | 179145 | 201802
Характеристики диапазона извлечения и сообщения об ошибках
Выбранный диапазон
Имя файла C:UsersАлександрDesktopНовая папкаChris De Burgh - The Getaway.wav
Пиковый уровень 84.9 %
Качество диапазона 99.8 %
CRC копии 90EBCEA2
Копирование... OK
Ошибок не произошло

AccurateRip: сводка

Трек 1 точное извлечение (доверие 75) [4A9FBAAA]
Трек 2 точное извлечение (доверие 74) [CF91AADB]
Трек 3 точное извлечение (доверие 74) [F423A132]
Трек 4 точное извлечение (доверие 74) [666D9D50]
Трек 5 точное извлечение (доверие 74) [D340D133]
Трек 6 точное извлечение (доверие 74) [F03FCE11]
Трек 7 точное извлечение (доверие 73) [45430DD3]
Трек 8 точное извлечение (доверие 73) [1E1337C0]
Трек 9 точное извлечение (доверие 73) [CA5303E8]
Трек 10 точное извлечение (доверие 72) [8DAF87D6]
Трек 11 точное извлечение (доверие 71) [1865313B]
Трек 12 точное извлечение (доверие 71) [37CECAA5]

Все треки извлечены точно
Конец отчёта
Chris de Burgh (born Christopher John Davison on 15 October 1948) is a British singer-songwriter, perhaps most famous for his 1986 love song "The Lady in Red". He does, however, write in a wide variety of genres, and is a trained instrumentalist.
Lossless Links
UPLOADED.to:
HOTFILE.com:
SHARINGMATRIX.com:
MP3 Links
| |




Alternative download links

uploaded.to part1 uploaded.to part2 hotfile.com part1 hotfile.com part2 sharingmatrix.com part1 sharingmatrix.com part2 HOTFILE SHARINGMATRIX UPLOADED

Related MP3 FLAC to Chris De Burgh - The Getaway
Feedback
All rights reserved.
WEBBG.com © 2000-2018