Furio Di Castri E Antonello Salis - Omaggio All Opera (2008)
MP3 FLAC WMA APE HD

Furio Di Castri E Antonello Salis - Omaggio All Opera (2008)

  • Genre: Music, Jazz, FLAC / APE
  • Formats: MP3 FLAC WMA HD APE
  • Album Size: 1340 mb.
  • Archive: ZIP RAR
Artist: Furio Di Castri E Antonello Salis
Title Of Album: Omaggio All' Opera
Year Of Release: 2008
Label: Casa del Jazz
Genre: Jazz, World Jazz
Quality: FLAC (Tracks,cue,log,scans) | MP3
Bitrate: lossless | 320kbps
Total Size: 328 mb/114 mb (+5% rec.)
Tracklist
01. Overtour (1:53)
02. Wine Hot Medley (4:40)
03. That's The Way (6:42)
04. Sigari A Bordeaux Medley (6:24)
05. Interludio Per Mascagni (2:11)
06. Para-Ebbrezza (2:30)
07. Il Vino All'Opera Medley 1 (4:29)
08. Guess Who (6:28)
09. The First Element Medley (4:42)
10. Sacacorchos Medley (3:22)
11. Il Vino All'Opera Medley 2 (3:18)
EAC extraction logfile from 4. July 2008, 16:51 for CD
Furio Di Castri E Antonello Salis / Omaggio All'Opera
Used drive : HL-DT-STDVD-RAM GSA-H55N Adapter: 1 ID: 0
Read mode : Secure with NO C2, accurate stream, disable cache
Read offset correction : 102
Overread into Lead-In and Lead-Out : No
Used output format : C:Documents and SettingsClaudioDesktopEACeac-0.95b4-cdrdaoflac.exe (User Defined Encoder)
320 kBit/s
Additional command line options : -V -8 -T "artist=%a" -T "title=%t" -T "album=%g" -T "date=%y" -T "tracknumber=%n" -T "genre=%m" %s
Other options :
Fill up missing offset samples with silence : Yes
Delete leading and trailing silent blocks : No
Installed external ASPI interface
Track 1
Filename C:Estratti Con EAC1 - Overtour.wav
Pre-gap length 0:00:02.00
Peak level 100.0 %
Track quality 100.0 %
Test CRC 47F553D2
Copy CRC 47F553D2
Copy OK
Track 2
Filename C:Estratti Con EAC2 - Wine Hot Medley.wav
Peak level 100.0 %
Track quality 99.8 %
Test CRC 90A72F6F
Copy CRC 90A72F6F
Copy OK
Track 3
Filename C:Estratti Con EAC3 - That's The Way.wav
Pre-gap length 0:00:01.12
Peak level 100.0 %
Track quality 99.9 %
Test CRC DF3F0A10
Copy CRC DF3F0A10
Copy OK
Track 4
Filename C:Estratti Con EAC4 - Sigari A Bordeaux Medley.wav
Peak level 100.0 %
Track quality 100.0 %
Test CRC 7EFDB582
Copy CRC 7EFDB582
Copy OK
Track 5
Filename C:Estratti Con EAC5 - Interludio Per Mascagni.wav
Peak level 66.8 %
Track quality 99.9 %
Test CRC 910CA973
Copy CRC 910CA973
Copy OK
Track 6
Filename C:Estratti Con EAC6 - Para-Ebbrezza.wav
Peak level 93.8 %
Track quality 100.0 %
Test CRC 24184351
Copy CRC 24184351
Copy OK
Track 7
Filename C:Estratti Con EAC7 - Il Vino All'Opera Medley 1.wav
Peak level 100.0 %
Track quality 100.0 %
Test CRC B70F235A
Copy CRC B70F235A
Copy OK
Track 8
Filename C:Estratti Con EAC8 - Guess Who.wav
Peak level 100.0 %
Track quality 100.0 %
Test CRC B91EF094
Copy CRC B91EF094
Copy OK
Track 9
Filename C:Estratti Con EAC9 - The First Element Medley.wav
Peak level 100.0 %
Track quality 100.0 %
Test CRC B85E9504
Copy CRC B85E9504
Copy OK
Track 10
Filename C:Estratti Con EAC10 - Sacacorchos Medley.wav
Peak level 100.0 %
Track quality 100.0 %
Test CRC A07E0E85
Copy CRC A07E0E85
Copy OK
Track 11
Filename C:Estratti Con EAC11 - Il Vino All'Opera Medley 2.wav
Peak level 71.6 %
Track quality 99.9 %
Test CRC 3D724293
Copy CRC 3D724293
Copy OK
No errors occured
End of status report
AUDIOCHECKER v2.0 beta (build 457) - by Dester - [email protected]
~~~~~~~~~~~~~~~~~~~~~~~~~~~~~~~~~~
-=== DO NOT EDIT THIS FILE! ===-
Path: ...Furio Di Castri E Antonello Salis - Omaggio All' Opera - 2008
01 -=- 01 - Overtour.flac -=- CDDA (100%)
02 -=- 02 - Wine Hot Medley.flac -=- CDDA (100%)
03 -=- 03 - That's The Way.flac -=- CDDA (99%)
04 -=- 04 - Sigari A Bordeaux Medley.flac -=- CDDA (100%)
05 -=- 05 - Interludio Per Mascagni.flac -=- CDDA (99%)
06 -=- 06 - Para-Ebbrezza.flac -=- CDDA (100%)
07 -=- 07 - Il Vino All'Opera Medley 1.flac -=- CDDA (99%)
08 -=- 08 - Guess Who.flac -=- CDDA (100%)
09 -=- 09 - The First Element Medley.flac -=- CDDA (100%)
10 -=- 10 - Sacacorchos Medley.flac -=- CDDA (100%)
11 -=- 11 - Il Vino All'Opera Medley 2.flac -=- CDDA (100%)
Summary 99,73% CDDA
27578772
Il settimo album della collana Jazz Italiano Live 2008 vede all’opera (è proprio la parola giusta) un gruppo inusuale alle prese con un progetto originale: il vino all’opera. Una serie di arie operistiche, da Mozart a Donizetti, in cui il vino diventa il protagonista. Il peso delle composizioni e degli arrangiamenti è tutto sulle spalle di Furio Di Castri, contrabbassista e compositore tra i migliori della ribalta italiana, supportato da Antonello Salis al piano e alla fisarmonica , da un ispiratissimo Mauro Negri al clarinetto, da Mauro Ottolini alla tuba e al trombone e, infine, dalle variegate percussioni di Michele Rabbia. L’approccio al materiale dei compositori è molto diverso da quello che utilizza Uri Caine nelle sue rivisitazioni classiche o al recente e bellissimo omaggio a Scarlatti da parte di Enrico Pieranunzi. Non c’è un percorso filologico o una meditata rivisitazione, bensi’ uno spumeggiante e fresco divertissement, con le composizioni di Di Castri a fare da trait d’union tra le celebri arie. La profondità è sostituita dall’immediatezza, il rigore dal divertimento. L’operazione è fatta con buon gusto, gli assoli di Negri sono notevoli ed i colori apportati da Salis e Rabbia rendono piacevole il risultato finale. Non credo che il progetto possa avere un futuro, come del resto una gran parte delle formazioni di questa collana, ma l’album è piacevole e l’ascolto gratificante. Proprio come uno spumeggiante e fresco vinello.
Lossless

MP3




Alternative download links

hotfile.com-1 hotfile.com-2 uploaded.to-1 uploaded.to-2 HOTFILE UPLOADED

Related MP3 FLAC to Furio Di Castri E Antonello Salis - Omaggio All Opera (2008)
Feedback
All rights reserved.
WEBBG.com © 2000-2018