Kenny Barron Quintet - Images (2004)
MP3 FLAC WMA APE HD

Kenny Barron Quintet - Images (2004)

  • Genre: Music, Jazz, FLAC / APE
  • Formats: MP3 FLAC WMA HD APE
  • Album Size: 1257 mb.
  • Archive: ZIP RAR
Artist: Kenny Barron Quintet
Title Of Album: Images
Year Of Release: 2004
Label: Sunnyside Records
Genre: Jazz
Quality: APE (Img,cue,log,scans)|MP3
Bitrate: lossless | 320kbps
Total Time: 01:12:44 min
Total Size: 427 mb/177 mb (+5%Rec)
Tracklist
01 So It Seems - 4:12
02 Jasmine Flower - 5:48
03 Inside Out - 6:35
04 The Lost Ones - 7:05
05 Hallucinations - 4:01
06 Song for Abdullah - 6:46
07 Footprints - 7:12
08 Marie Laveau - 7:40
09 Miss Missy - 5:22
10 Images - 18:02
Personnel:
Kenny Barron (piano)
Stefon Harris (vibraphone)
Anne Drummond (alto and c-flute)
Kiyoshi Kitagawa (bass)
Kim Thompson (drums)
While this album seems mellow on first listen, there's a lot going on under the surface: sharp time-signature changes (a la Dave Brubeck), breakneck tempos, Brazilian undertones, and complex, darting but always pretty melodies. Not to overlook the soloing; Barron consistently dazzles with his lean, Thelonious Monk-tinged style, Stefon Harris's vibes glisten like morning sunlight, and Anne Drummond's flute is both soothing and spirited simultaneously. IMAGES is recommended to not only Barron and jazz-piano fans, but those who think music can't be intensely artistic and accessible at once.
Hard-bop pianist Kenny Barron has been a "musician's musician" for decades, playing behind such towering figures as Dizzy Gilles pie, Yusef Lateef, Stan Getz, and Freddie Hubbard. But in the 1990s, Barron began to take center stage, leading mostly trios through a series of albums that established him as a fine composer of intricate but madly swinging tunes. On IMAGES, he's assembled a somewhat unusual lineup, dispensing with any reeds or brass--just piano, flute, vibes, bass, and drums. The result is a set of bright, deceptively easygoing straight-ahead jazz--imagine the Modern Jazz Quartet after a long vacation in Brazil, where they drank lots of coffee.
Exact Audio Copy V0.99 prebeta 5 from 4. May 2009
EAC extraction logfile from 22. December 2009, 11:04
Barron, Kenny / Images
Used drive : PLEXTOR DVDR PX-820SA Adapter: 2 ID: 3
Read mode : Secure
Utilize accurate stream : Yes
Defeat audio cache : Yes
Make use of C2 pointers : No
Read offset correction : 48
Overread into Lead-In and Lead-Out : No
Fill up missing offset samples with silence : Yes
Delete leading and trailing silent blocks : No
Null samples used in CRC calculations : Yes
Used interface : Native Win32 interface for Win NT & 2000
Used output format : Internal WAV Routines
Sample format : 44.100 Hz; 16 Bit; Stereo
TOC of the extracted CD
Track | Start | Length | Start sector | End sector
---------------------------------------------------------
1 | 0:00.00 | 4:12.44 | 0 | 18943
2 | 4:12.44 | 5:47.51 | 18944 | 45019
3 | 10:00.20 | 6:35.26 | 45020 | 74670
4 | 16:35.46 | 7:04.70 | 74671 | 106540
5 | 23:40.41 | 4:00.72 | 106541 | 124612
6 | 27:41.38 | 6:46.33 | 124613 | 155095
7 | 34:27.71 | 7:12.02 | 155096 | 187497
8 | 41:39.73 | 7:40.18 | 187498 | 222015
9 | 49:20.16 | 5:21.55 | 222016 | 246145
10 | 54:41.71 | 18:02.24 | 246146 | 327319
Range status and errors
Selected range
Filename G:ZagruzkaAdjunctK Barron-ImagesBarron, Kenny - Images.wav
Peak level 100.0 %
Range quality 100.0 %
Copy CRC A4309483
Copy OK
No errors occurred
End of status report
Lossless

MP3




Alternative download links

hotfile.com-1 hotfile.com-2 hotfile.com-3 fileserve.com-1 fileserve.com-2 fileserve.com-3 HOTFILE FILESERVE

Related MP3 FLAC to Kenny Barron Quintet - Images (2004)
Feedback
All rights reserved.
WEBBG.com © 2000-2018