Dreamtide - Dreams For The Daring (2003)
MP3 FLAC WMA APE HD

Dreamtide - Dreams For The Daring (2003)

Artist: Dreamtide
Title Of Album: Dreams For The Daring
Year Of Release: 2003
Label: Frontiers Records
Genre: Melodic Hard Rock
Quality: APE (image+.cue) + log
Bitrate: Lossless
Total Time: 77:03
Total Size: 660 Mb
When Dreamtide’s first album “Here Comes The Flood” was released some two years ago, many people compared it with Fair Warning’s output, mainly due to the fact that the songs came from the mind of the same person: guitarist Helge Engelke. His fans had to wait a (rather) long period for this “Dreams For The Daring”, but the good/bad (make your own choice) news is that it’s offering more of the same: mainly up-tempo, epic and bombastic songs, full of melodies and hooks.
Tracklist:
01. Dream Real
02. Live And Let Live
03. I'll Be Moving On
04. All Of My Dreams
05. I'm Not With You
06. Man On A Mission
07. Eden
08. Land Without Justice
09. Out There
10. Dreams Are Free
11. Sweet Babylon
12. You Can't Burn My Heart Out
13. Eden (Alt. Mix)
14. Land Without Justice (Alt. Mix)
15. Live And Let Live (Alt. Mix)
Exact Audio Copy V0.99 prebeta 4 from 23. January 2008
Отчёт EAC об извлечении, выполненном 16. февраля 2011, 22:53
Dreamtide / Dreams For The Daring
Дисковод: _NEC DVD_RW ND-3550A Adapter: 0 ID: 0
Режим чтения : Достоверность
Использование точного потока : Да
Отключение кэша аудио : Да
Использование указателей C2 : Нет
Коррекция смещения при чтении : 48
Способность читать области Lead-in и Lead-out : Нет
Заполнение пропущенных сэмплов тишиной : Да
Удаление блоков с тишиной в начале и конце : Нет
При вычислениях CRC использовались нулевые сэмплы : Да
Интерфейс : Встроенный Win32-интерфейс для Win NT/2000
Выходной формат : Внутренние WAV-операции
Формат сэмплов : 44.100 Гц; 16 бит; стерео
TOC извлечённого CD
Трек | Старт | Длительность | Начальный сектор | Конечный сектор
---------------------------------------------------------------------
1 | 0:00.00 | 4:37.74 | 0 | 20848
2 | 4:37.74 | 6:19.52 | 20849 | 49325
3 | 10:57.51 | 5:05.36 | 49326 | 72236
4 | 16:03.12 | 5:08.16 | 72237 | 95352
5 | 21:11.28 | 5:18.72 | 95353 | 119274
6 | 26:30.25 | 4:18.46 | 119275 | 138670
7 | 30:48.71 | 5:54.04 | 138671 | 165224
8 | 36:43.00 | 5:01.43 | 165225 | 187842
9 | 41:44.43 | 4:18.53 | 187843 | 207245
10 | 46:03.21 | 5:01.51 | 207246 | 229871
11 | 51:04.72 | 4:48.20 | 229872 | 251491
12 | 55:53.17 | 4:06.18 | 251492 | 269959
13 | 59:59.35 | 5:48.22 | 269960 | 296081
14 | 65:47.57 | 5:01.42 | 296082 | 318698
15 | 70:49.24 | 6:14.08 | 318699 | 346756
Характеристики диапазона извлечения и сообщения об ошибках
Выбранный диапазон
Имя файла C:Documents and SettingsbooddoomРабочий столНовая папкаDreamtide - Dreams For The Daring.wav
Пиковый уровень 99.3 %
Качество диапазона 100.0 %
CRC теста 9DF816A8
CRC копии 9DF816A8
Копирование... OK
Ошибок не произошло
AccurateRip: сводка
Трек 1 точное извлечение (доверие 8) [BA7A5007]
Трек 2 точное извлечение (доверие 7) [69AE2A59]
Трек 3 точное извлечение (доверие 8) [71893634]
Трек 4 точное извлечение (доверие 8) [D317A112]
Трек 5 точное извлечение (доверие 8) [48B73395]
Трек 6 точное извлечение (доверие 8) [016E29BC]
Трек 7 точное извлечение (доверие 8) [17287CD5]
Трек 8 точное извлечение (доверие 8) [A432C1C7]
Трек 9 точное извлечение (доверие 8) [361FF057]
Трек 10 точное извлечение (доверие 8) [C84FA1A0]
Трек 11 точное извлечение (доверие 8) [1E9AF8C1]
Трек 12 точное извлечение (доверие 8) [986BE3DB]
Трек 13 точное извлечение (доверие 8) [93D8E91B]
Трек 14 точное извлечение (доверие 8) [88ED7E21]
Трек 15 точное извлечение (доверие 7) [5D0D56B6]
Все треки извлечены точно
Конец отчёта
FileSonic
Wupload



Alternative download links

DOWNLOAD

Related MP3 FLAC to Dreamtide - Dreams For The Daring (2003)
Feedback
All rights reserved.
WEBBG.com © 2000-2018