Sonny Criss - Sonny Criss Plays Cole Porter (1956) 2006, Japan
MP3 FLAC WMA APE HD

Sonny Criss - Sonny Criss Plays Cole Porter (1956) 2006, Japan

  • Genre: Jazz, FLAC / APE, CD-Rip
  • Formats: MP3 FLAC WMA HD APE
  • Album Size: 1359 mb.
  • Archive: ZIP RAR
Artist: Sonny Criss
Title: Sonny Criss Plays Cole Porter
Year Of Release: 2006-12-20
Label: Toshiba-EMI Ltd. (Japan)
Genre: Jazz, Bop, Hard Bop, Saxophone
Quality: FLAC (tracks+.cue+.log) | MP3 320kbps
Total Time: 37:08
Total Size: 164,66 | 127,12 Mb (Full Scans)
WebSite:

Sonny Criss plays Cole Porter – and the results are way greater than the sum of the parts – even though those parts are already pretty darn great! Criss' alto sax has a superb tone at this time – razor-sharp, and nicely crisp – yet still filled with warmth that sets it apart from some of his more modern contemporaries – a beautiful balance that really illuminates these tunes, and has you thinking of them as fresh Criss compositions, not older Porter standards. The instrumentation is quite fresh, too – thanks to the addition of Larry Bunker on vibes, which is a really nice surprise – and piano by Sonny Clark and Jimmy Bunn. The great Lawrence Marable plays drums – and titles include "I Love You", "Easy To Love", "Night & Day", and "Love For Sale".
Release of the album: 1956 [LP Imperial, Cat.# LP 9024, USA]
Release of this CD: 2006, December, 20 [CD Toshiba-EMI Ltd. (Japan), Cat.# TOCJ-6869 / EAN: 4988006849594]
(c) 1956, (p) 2006 Imperial Records.
Manufactured by Toshiba-EMI Ltd. in Japan

Notes: Mono, 24-bit Remastered Reissue

Credits:

Alto Saxophone – Sonny Criss
Bass – Buddy Clark
Drums – Lawrence Marable
Piano – Sonny Clark
Remastered By – Ron McMaster
Vibraphone – Larry Bunker


Tracklist:

01. I Love You (04:13)
02. Anything Goes (03:13)
03. Easy to Love (03:17)
04. It's Alright with Me (03:13)
05. In the Still of the Night (04:20)
06. Love for Sale (02:46)
07. Night and Day (04:44)
08. Just One of Those Things (02:50)
09. What Is This Thing Called Love (05:45)
10. I Get a Kick Out of You (02:47)

--------------------------------------------------------------------------------
Analyzed: Sonny Criss / Plays Cole Porter
--------------------------------------------------------------------------------

DR Peak RMS Duration Track
--------------------------------------------------------------------------------
DR9 -0.14 dB -11.50 dB 4:13 01-I Love You
DR10 -0.03 dB -11.63 dB 3:13 02-Anything Goes
DR10 -0.16 dB -11.77 dB 3:17 03-Easy To Love
DR10 -0.06 dB -11.33 dB 3:13 04-It's Alright With Me
DR10 -0.03 dB -11.92 dB 4:20 05-In The Still Of The Night
DR9 -0.08 dB -12.89 dB 2:46 06-Love For Sale
DR10 -0.11 dB -12.60 dB 4:44 07-Night And Day
DR10 -0.11 dB -11.88 dB 2:50 08-Just One Of Those Things
DR11 -0.07 dB -12.68 dB 5:45 09-What Is This Thing Called Love
DR10 -0.04 dB -11.65 dB 2:47 10-I Get A Kick Out Of You
--------------------------------------------------------------------------------

Number of tracks: 10
Official DR value: DR10

Samplerate: 44100 Hz
Channels: 2
Bits per sample: 16
Bitrate: 482 kbps
Codec: FLAC
================================================================================


FLAC DOWNLOAD ~ Download FLAC


password: BlondStyle

MP3 DOWNLOAD ~ Download MP3


Alternative download links

Turbobit Turbobit

Related MP3 FLAC to Sonny Criss - Sonny Criss Plays Cole Porter (1956) 2006, Japan
Feedback
All rights reserved.
WEBBG.com © 2000-2018