Daryl Stuermer - Go (2007)
MP3 FLAC WMA APE HD

Daryl Stuermer - Go (2007)

Artist: Daryl Stuermer
Title: Go
Year Of Release: 2017
Label: Inside Out Music[SPV 79162 CD]
Genre: Jazz Rock, Jazz Fusion
Quality: FLAC (tracks + .cue,log,scans) | MP3/320 kbps
Total Time: 47:42
Total Size: 349 MB(+3%) | 113 MB(+3%)
WebSite:

Tracklist

01. Striker
02. Masala Mantra
03. Greenlight
04. Dream In Blue
05. Breaking Point
06. Urbanista
07. Heavy Heart
08. Meltdown
09. The Archer
10. Omnibus

personnel:

Daryl Stuermer - guitar, keyboards, percussion programming
John Calarco - drums
Leland Sklar - bass
Eric Hervey - bass
Kostia - Keyboards

EAC extraction logfile from 26. April 2007, 17:18 for CD
Daryl Stuermer / Go

Used drive : TSSTcorpCD/DVDW SH-S182M Adapter: 2 ID: 0
Read mode : Secure with NO C2, accurate stream, disable cache
Read offset correction : 6
Overread into Lead-In and Lead-Out : No

Used output format : C:EACflac-1.1.2-winbinflac.exe (User Defined Encoder)
320 kBit/s
Additional command line options : -V -8 -T "artist=%a" -T "title=%t" -T "album=%g" -T "date=%y" -T "tracknumber=%n" -T "genre=%m" %s

Other options :
Fill up missing offset samples with silence : Yes
Delete leading and trailing silent blocks : No
Installed external ASPI interface


Track 1
Filename E:Daryl Stuermer - Go [FLAC]1 - Striker.wav

Pre-gap length 0:00:02.00

Peak level 97.7 %
Track quality 100.0 %
Test CRC E15DF3D8
Copy CRC E15DF3D8
Copy OK

Track 2
Filename E:Daryl Stuermer - Go [FLAC]2 - Masala Mantra.wav

Pre-gap length 0:00:02.00

Peak level 97.7 %
Track quality 100.0 %
Test CRC CD3C00E2
Copy CRC CD3C00E2
Copy OK

Track 3
Filename E:Daryl Stuermer - Go [FLAC]3 - Greenlight.wav

Pre-gap length 0:00:02.00

Peak level 97.7 %
Track quality 100.0 %
Test CRC 6CC2D759
Copy CRC 6CC2D759
Copy OK

Track 4
Filename E:Daryl Stuermer - Go [FLAC]4 - Dream In Blue.wav

Pre-gap length 0:00:02.00

Peak level 97.7 %
Track quality 100.0 %
Test CRC 2F70A622
Copy CRC 2F70A622
Copy OK

Track 5
Filename E:Daryl Stuermer - Go [FLAC]5 - Breaking Point.wav

Pre-gap length 0:00:02.00

Peak level 97.7 %
Track quality 100.0 %
Test CRC C2E7952C
Copy CRC C2E7952C
Copy OK

Track 6
Filename E:Daryl Stuermer - Go [FLAC]6 - Urbanista.wav

Pre-gap length 0:00:02.00

Peak level 97.7 %
Track quality 99.9 %
Test CRC D9188320
Copy CRC D9188320
Copy OK

Track 7
Filename E:Daryl Stuermer - Go [FLAC]7 - Heavy Heart.wav

Pre-gap length 0:00:02.74

Peak level 97.7 %
Track quality 100.0 %
Test CRC AFEBF22B
Copy CRC AFEBF22B
Copy OK

Track 8
Filename E:Daryl Stuermer - Go [FLAC]8 - Meltdown.wav

Pre-gap length 0:00:02.50

Peak level 97.7 %
Track quality 100.0 %
Test CRC 61025D39
Copy CRC 61025D39
Copy OK

Track 9
Filename E:Daryl Stuermer - Go [FLAC]9 - The Archer.wav

Pre-gap length 0:00:02.00

Peak level 97.7 %
Track quality 100.0 %
Test CRC 24EAEF6D
Copy CRC 24EAEF6D
Copy OK

Track 10
Filename E:Daryl Stuermer - Go [FLAC]10 - Omnibus.wav

Pre-gap length 0:00:02.00

Peak level 97.7 %
Track quality 100.0 %
Test CRC 98499D11
Copy CRC 98499D11
Copy OK

No errors occured


End of status report

FLAC

MP3




Alternative download links

Turbobit Turbobit

Related MP3 FLAC to Daryl Stuermer - Go (2007)
Feedback
All rights reserved.
WEBBG.com © 2000-2018