Stanley Clarke, Al Di Meola Jean Luc Ponty - The Rite Of Strings (1995)
MP3 FLAC WMA APE HD

Stanley Clarke, Al Di Meola Jean Luc Ponty - The Rite Of Strings (1995)

  • Genre: Jazz, FLAC / APE
  • Formats: MP3 FLAC WMA HD APE
  • Album Size: 1781 mb.
  • Archive: ZIP RAR
Artist: Stanley Clarke, Al Di Meola & Jean Luc Ponty
Title: The Rite Of Strings
Year Of Release: 1995
Label: Gai Saber[7243 8 34167 2 1]
Genre: Jazz, Fusion
Quality: FLAC (tracks + .cue,log,scans)
Total Time: 55:50
Total Size: 298 MB(+3%)
WebSite:

Tracklist
1. Indigo
2. Renaissance
3. Song To John (Dedicated To John Coltrane)
4. Chilean Pipe Song
5. Topanga
6. Morocco
7. Change Of Life
8. La Cancion De Sofia
9. Memory Canyon
personnel :
Stanley Clarke - acoustic bass
Al Di Meola - acoustic guitars
Jean-Luc Ponty - acoustic violin
EAC extraction logfile from 18. October 2006, 22:44 for CD
Stanley Clarke, Al Di Meola & Jean Luc Ponty / The Rite Of Strings
Used drive : MATSHITAUJ-840D Adapter: 0 ID: 1
Read mode : Secure with NO C2, accurate stream, disable cache
Read offset correction : 102
Overread into Lead-In and Lead-Out : No
Used output format : C:Program FilesFLACflac.exe (User Defined Encoder)
128 kBit/s
Additional command line options : -5 -V -T "ARTIST=%a" -T "TITLE=%t" -T "ALBUM=%g" -T "DATE=%y" -T "TRACKNUMBER=%n" -T "GENRE=%m" -T "COMMENT=EAC Flac 1.1.2 -5" %s
Other options :
Fill up missing offset samples with silence : Yes
Delete leading and trailing silent blocks : No
Native Win32 interface for Win NT & 2000
Track 1
Filename C:3ccd1 - Indigo.wav
Pre-gap length 0:00:02.00
Peak level 89.8 %
Track quality 100.0 %
Test CRC 844EFE0C
Copy CRC 844EFE0C
Copy OK
Track 2
Filename C:3ccd2 - Renassaince.wav
Pre-gap length 0:00:01.49
Peak level 90.2 %
Track quality 100.0 %
Test CRC BBE19B86
Copy CRC BBE19B86
Copy OK
Track 3
Filename C:3ccd3 - Song To John [Dedicated To John Coltrane].wav
Pre-gap length 0:00:01.16
Peak level 100.0 %
Track quality 100.0 %
Test CRC 3EFBE51A
Copy CRC 3EFBE51A
Copy OK
Track 4
Filename C:3ccd4 - Chilean Pipe Song.wav
Pre-gap length 0:00:01.13
Peak level 88.2 %
Track quality 99.9 %
Test CRC 7C6DE6B3
Copy CRC 7C6DE6B3
Copy OK
Track 5
Filename C:3ccd5 - Topanga.wav
Pre-gap length 0:00:01.16
Peak level 69.4 %
Track quality 100.0 %
Test CRC 6D9454E6
Copy CRC 6D9454E6
Copy OK
Track 6
Filename C:3ccd6 - Morocco.wav
Pre-gap length 0:00:02.29
Peak level 98.4 %
Track quality 100.0 %
Test CRC D2D990D8
Copy CRC D2D990D8
Copy OK
Track 7
Filename C:3ccd7 - Change Of Life.wav
Pre-gap length 0:00:01.53
Peak level 95.0 %
Track quality 100.0 %
Test CRC F8C410BF
Copy CRC F8C410BF
Copy OK
Track 8
Filename C:3ccd8 - La Cancion De Sofia.wav
Pre-gap length 0:00:01.66
Peak level 100.0 %
Track quality 100.0 %
Test CRC C9B91DC5
Copy CRC C9B91DC5
Copy OK
Track 9
Filename C:3ccd9 - Memory Canyon.wav
Pre-gap length 0:00:01.06
Peak level 98.0 %
Track quality 99.9 %
Test CRC 397375F6
Copy CRC 397375F6
Copy OK
No errors occured
End of status report
| |




Alternative download links

Depositfiles Turbobit Uploaded

Related MP3 FLAC to Stanley Clarke, Al Di Meola Jean Luc Ponty - The Rite Of Strings (1995)
Feedback
All rights reserved.
WEBBG.com © 2000-2018