Bobby Caldwell - August Moon (1983)
MP3 FLAC WMA APE HD

Bobby Caldwell - August Moon (1983)

Artist: Bobby Caldwell
Title: August Moon
Year Of Release: 1983
Label: Sin-Drome[SD 8892]
Genre: Jazz, Soul, Smooth Jazz
Quality: FLAC (tracks + .cue,log,scans)
Total Time: 32:26
Total Size: 225 MB (+3%)
WebSite:

Tracklist
01 Sherry
02 She Loves My Car
03 Fraulein
04 She Does It Better
05 Cover Girl
06 Loaded Gun
07 Class Of 69
08 Saying Goodnight
09 Once You Give In
10 Never Loved Before
personnel :
Bobby Caldwell - vocals, guitar, bass, keyboards
Jim Berhringer - guitar
David Hungate - bass
Jimmy Haslip - bass
Jeff Porcaro - drums
Larry Londin - drums
Shane Keister- keyboards
An instrumental pop workout by Caldwell, who plays guitar, keyboards and synthesizers, bass, and drums, does the production and arrangements, handles all the vocals, and even assists with the mixing and arranging. There's minimal jazz content, but some songs have nice melodies and were designed for Urban Contemporary audiences. ~ Ron Wynn
EAC extraction logfile from 25. May 2007, 18:47 for CD
Bobby Caldwell / August Moon
Used drive : _NEC DVD_RW ND-3500AG Adapter: 1 ID: 1
Read mode : Secure with NO C2, accurate stream, disable cache
Read offset correction : 48
Overread into Lead-In and Lead-Out : No
Used output format : C:ProgramFLACflac.exe (User Defined Encoder)
192 kBit/s
Additional command line options : -V -8 -T "artist=%a" -T "title=%t" -T "album=%g" -T "date=%y" -T "tracknumber=%n" -T "genre=%m" %s
Other options :
Fill up missing offset samples with silence : Yes
Delete leading and trailing silent blocks : No
Installed external ASPI interface
Track 1
Filename I:Finished downloadsBobby Caldwell - August Moon [FLAC]1 - Sherry.wav
Pre-gap length 0:00:02.66
Peak level 100.0 %
Track quality 100.0 %
Test CRC F5DED2B5
Copy CRC F5DED2B5
Copy OK
Track 2
Filename I:Finished downloadsBobby Caldwell - August Moon [FLAC]2 - She Loves My Car.wav
Pre-gap length 0:00:01.64
Peak level 90.0 %
Track quality 100.0 %
Test CRC 51025E6E
Copy CRC 51025E6E
Copy OK
Track 3
Filename I:Finished downloadsBobby Caldwell - August Moon [FLAC]3 - Fraulein.wav
Pre-gap length 0:00:02.00
Peak level 100.0 %
Track quality 99.9 %
Test CRC C2A812E8
Copy CRC C2A812E8
Copy OK
Track 4
Filename I:Finished downloadsBobby Caldwell - August Moon [FLAC]4 - She Does It Better.wav
Pre-gap length 0:00:01.53
Peak level 89.4 %
Track quality 100.0 %
Test CRC 37DA024A
Copy CRC 37DA024A
Copy OK
Track 5
Filename I:Finished downloadsBobby Caldwell - August Moon [FLAC]5 - Cover Girl.wav
Pre-gap length 0:00:04.70
Peak level 76.4 %
Track quality 100.0 %
Test CRC AB0F1B9B
Copy CRC AB0F1B9B
Copy OK
Track 6
Filename I:Finished downloadsBobby Caldwell - August Moon [FLAC]6 - Loaded Gun.wav
Pre-gap length 0:00:02.50
Peak level 98.4 %
Track quality 100.0 %
Test CRC 481BC9DB
Copy CRC 481BC9DB
Copy OK
Track 7
Filename I:Finished downloadsBobby Caldwell - August Moon [FLAC]7 - Class Of 69.wav
Pre-gap length 0:00:02.13
Peak level 83.8 %
Track quality 100.0 %
Test CRC CF93714B
Copy CRC CF93714B
Copy OK
Track 8
Filename I:Finished downloadsBobby Caldwell - August Moon [FLAC]8 - Saying Goodnight.wav
Pre-gap length 0:00:01.56
Peak level 100.0 %
Track quality 100.0 %
Test CRC F99A2273
Copy CRC F99A2273
Copy OK
Track 9
Filename I:Finished downloadsBobby Caldwell - August Moon [FLAC]9 - Once You Give In.wav
Pre-gap length 0:00:01.84
Peak level 80.2 %
Track quality 100.0 %
Test CRC B651074D
Copy CRC B651074D
Copy OK
Track 10
Filename I:Finished downloadsBobby Caldwell - August Moon [FLAC]10 - Never Loved Before.wav
Pre-gap length 0:00:03.77
Peak level 68.9 %
Track quality 100.0 %
Test CRC 9195F054
Copy CRC 9195F054
Copy OK
No errors occured
End of status report





Alternative download links

Turbobit

Related MP3 FLAC to Bobby Caldwell - August Moon (1983)
Feedback
All rights reserved.
WEBBG.com © 2000-2018