Charlie Haden, Jan Garbarek, Egberto Gismonti - Folk Songs (1981)
MP3 FLAC WMA APE HD

Charlie Haden, Jan Garbarek, Egberto Gismonti - Folk Songs (1981)

  • Genre: Jazz, Music, FLAC / APE
  • Formats: MP3 FLAC WMA HD APE
  • Album Size: 1816 mb.
  • Archive: ZIP RAR
Artist: Charlie Haden, Jan Garbarek, Egberto Gismonti
Title: Folk Songs
Year Of Release: 1981
Label: ECM[ECM 1170]
Genre: Jazz
Quality: FLAC (tracks + .cue,log,scans)
Total Time: 45:36
Total Size: 204 MB(+3%)
WebSite:

Tracklist
1. Folk Song — 8:17
2. Bodas De Prata — 4:50
3. Cego Aderaldo — 8:02
4. Veien — 7:56
5. Equilbrista — 8:41
6. For Turiya — 7:40
personnel:
Charlie Haden — bass
Jan Garbarek — tenor & soprano saxophones
Egberto Gismonti — 8 string guitar, piano
EAC extraction logfile from 2. February 2005, 17:29 for CD
Charlie Haden, Jan Garbarek & Egberto Gismonti / Folk Songs
Used drive : MATSHITAUJDA745 DVD/CDRW Adapter: 2 ID: 0
Read mode : Secure with NO C2, accurate stream, disable cache
Read offset correction : 102
Overread into Lead-In and Lead-Out : No
Used output format : Internal WAV Routines
44.100 Hz; 16 Bit; Stereo
Other options :
Fill up missing offset samples with silence : Yes
Delete leading and trailing silent blocks : No
Installed external ASPI interface
Track 1
Filename C:Documents and Settingsymilner.DANMy DocumentsAudioHaden Garbarek Gismonti - Folk Songs [FLAC]1 - Folk Song .wav
Pre-gap length 0:00:02.33
Peak level 71.1 %
Track quality 100.0 %
Test CRC BE24A723
Copy CRC BE24A723
Copy OK
Track 2
Filename C:Documents and Settingsymilner.DANMy DocumentsAudioHaden Garbarek Gismonti - Folk Songs [FLAC]2 - Bodas De Prata .wav
Pre-gap length 0:00:07.00
Peak level 69.3 %
Track quality 100.0 %
Test CRC 94F9F22B
Copy CRC 94F9F22B
Copy OK
Track 3
Filename C:Documents and Settingsymilner.DANMy DocumentsAudioHaden Garbarek Gismonti - Folk Songs [FLAC]3 - Cego Aderaldo .wav
Pre-gap length 0:00:05.37
Peak level 83.5 %
Track quality 100.0 %
Test CRC 18732A96
Copy CRC 18732A96
Copy OK
Track 4
Filename C:Documents and Settingsymilner.DANMy DocumentsAudioHaden Garbarek Gismonti - Folk Songs [FLAC]4 - Veien .wav
Pre-gap length 0:00:08.00
Peak level 93.4 %
Track quality 100.0 %
Test CRC 8F63BD07
Copy CRC 8F63BD07
Copy OK
Track 5
Filename C:Documents and Settingsymilner.DANMy DocumentsAudioHaden Garbarek Gismonti - Folk Songs [FLAC]5 - Equilbrista .wav
Pre-gap length 0:00:06.38
Peak level 87.8 %
Track quality 100.0 %
Test CRC 4DA9EA67
Copy CRC 4DA9EA67
Copy OK
Track 6
Filename C:Documents and Settingsymilner.DANMy DocumentsAudioHaden Garbarek Gismonti - Folk Songs [FLAC]6 - For Turiya .wav
Pre-gap length 0:00:05.38
Peak level 64.0 %
Track quality 100.0 %
Test CRC A6090E04
Copy CRC A6090E04
Copy OK
No errors occured
End of status report




Alternative download links

Turbobit

Related MP3 FLAC to Charlie Haden, Jan Garbarek, Egberto Gismonti - Folk Songs (1981)
Feedback
All rights reserved.
WEBBG.com © 2000-2018